999
DXF file: 1635_undermount_052423.dxf
999
Pro/ENGINEER 2015080 by Parametric Technology Corporation
  0
SECTION
  2
HEADER
  9
$ACADVER
  1
AC1027
  9
$DWGCODEPAGE
  3
ANSI_1252
  9
$EXTMAX
 10
44.0
 20
34.0
 30
0.0
  9
$EXTMIN
 10
0.0
 20
0.0
 30
0.0
  9
$LIMMIN
 10
0.0
 20
0.0
  9
$LIMMAX
 10
44.0
 20
34.0
  9
$VIEWCTR
 10
22.0
 20
17.0
  9
$VIEWSIZE
 40
34.0
  9
$CLAYER
  8
0
  9
$LTSCALE
 40
2.42
  9
$CELTYPE
  6
BYLAYER
  9
$DIMSCALE
 40
1.0
  9
$DIMASZ
 40
0.1875
  9
$DIMEXO
 40
0.0625
  9
$DIMDLI
 40
1.672
  9
$DIMEXE
 40
0.125
  9
$DIMCEN
 40
0.396
  9
$DIMLFAC
 40
1.0
  9
$DIMBLK
  1
_CLOSED
  9
$DIMALT
 70
0
  9
$DIMALTF
 40
25.4
  9
$DIMTXT
 40
0.15625
  9
$DIMTOL
 70
0
  9
$DIMLIM
 70
0
  9
$DIMTFAC
 40
1.0
  9
$DIMGAP
 40
0.09
  9
$DIMDSEP
 70
46
  9
$AUNITS
 70
0
  9
$PDMODE
 70
3
  9
$PDSIZE
 40
0.3125
  9
$HANDSEED
  5
3E7
  9
$TILEMODE
 70
1
  9
$MEASUREMENT
 70
0
  9
$INSUNITS
 70
1
  0
ENDSEC
  0
SECTION
  2
CLASSES
  0
CLASS
  1
ACDBDICTIONARYWDFLT
  2
AcDbDictionaryWithDefault
  3
AutoCAD 2000
 90
0
 91
1
280
0
281
0
  0
CLASS
  1
ACDBPLACEHOLDER
  2
AcDbPlaceHolder
  3
AutoCAD 2000
 90
0
 91
1
280
0
281
0
  0
CLASS
  1
LAYOUT
  2
AcDbLayout
  3
AutoCAD 2000
 90
0
 91
0
280
0
281
0
  0
ENDSEC
  0
SECTION
  2
TABLES
  0
TABLE
  2
VPORT
  5
8
100
AcDbSymbolTable
 70
2
  0
VPORT
  5
1F4
100
AcDbSymbolTableRecord
100
AcDbViewportTableRecord
  2
*ACTIVE
 70
0
 10
0.0
 20
0.0
 11
1.0
 21
1.0
 12
22.0
 22
17.0
 13
0.0
 23
0.0
 14
1.0
 24
1.0
 15
0.0
 25
0.0
 16
0.0
 26
0.0
 36
1.0
 17
0.0
 27
0.0
 37
0.0
 40
34.0
 41
1.2941176471
 42
50.0
 43
0.0
 44
0.0
 50
0.0
 51
0.0
 71
0
 72
100
 73
1
 74
1
 75
0
 76
0
 77
0
 78
0
  0
ENDTAB
  0
TABLE
  2
LTYPE
  5
5
100
AcDbSymbolTable
 70
6
  0
LTYPE
  5
14
100
AcDbSymbolTableRecord
100
AcDbLinetypeTableRecord
  2
BYBLOCK
 70
0
  3

 72
65
 73
0
 40
0.0
  0
LTYPE
  5
15
100
AcDbSymbolTableRecord
100
AcDbLinetypeTableRecord
  2
BYLAYER
 70
0
  3

 72
65
 73
0
 40
0.0
  0
LTYPE
  5
16
100
AcDbSymbolTableRecord
100
AcDbLinetypeTableRecord
  2
CONTINUOUS
 70
64
  3
Solid line
 72
65
 73
0
 40
0.0
  0
LTYPE
  5
1F5
100
AcDbSymbolTableRecord
100
AcDbLinetypeTableRecord
  2
CENTER
 70
64
  3
____ _ ____ _ ____ _ ____ _ ____ _ ____ _ ____
 72
65
 73
4
 40
0.6
 49
0.375
 74
0
 49
-0.075
 74
0
 49
0.075
 74
0
 49
-0.075
 74
0
  0
LTYPE
  5
1F6
100
AcDbSymbolTableRecord
100
AcDbLinetypeTableRecord
  2
HIDDEN
 70
64
  3
- - - - - - - - - - - - - - - - - - - -
 72
65
 73
2
 40
0.2
 49
0.1
 74
0
 49
-0.1
 74
0
  0
LTYPE
  5
1F7
100
AcDbSymbolTableRecord
100
AcDbLinetypeTableRecord
  2
PHANTOM
 70
64
  3
_____ _ _ _____ _ _ _____ _ _ _____
 72
65
 73
6
 40
0.8
 49
0.45
 74
0
 49
-0.05
 74
0
 49
0.1
 74
0
 49
-0.05
 74
0
 49
0.1
 74
0
 49
-0.05
 74
0
  0
LTYPE
  5
1F8
100
AcDbSymbolTableRecord
100
AcDbLinetypeTableRecord
  2
DOT
 70
64
  3
. . . . . . . . . . . . . . . . . . . .
 72
65
 73
2
 40
0.2
 49
0.1
 74
0
 49
-0.1
 74
0
  0
LTYPE
  5
1F9
100
AcDbSymbolTableRecord
100
AcDbLinetypeTableRecord
  2
DASHED
 70
64
  3
- - - - - - - - - - - - - - - - - - - -
 72
65
 73
2
 40
0.2
 49
0.1
 74
0
 49
-0.1
 74
0
  0
ENDTAB
  0
TABLE
  2
LAYER
  5
2
100
AcDbSymbolTable
 70
36
  0
LAYER
  5
10
100
AcDbSymbolTableRecord
100
AcDbLayerTableRecord
  2
0
 70
0
 62
7
  6
CONTINUOUS
370
-3
390
F
  0
LAYER
  5
1FA
100
AcDbSymbolTableRecord
100
AcDbLayerTableRecord
  2
DEFAULT_1
 70
0
 62
7
  6
CENTER
370
-3
390
F
  0
LAYER
  5
1FB
100
AcDbSymbolTableRecord
100
AcDbLayerTableRecord
  2
DEFAULT_2
 70
0
 62
8
  6
HIDDEN
370
-3
390
F
  0
LAYER
  5
1FC
100
AcDbSymbolTableRecord
100
AcDbLayerTableRecord
  2
DEFAULT_3
 70
0
 62
7
  6
PHANTOM
370
-3
390
F
  0
LAYER
  5
1FD
100
AcDbSymbolTableRecord
100
AcDbLayerTableRecord
  2
01_ALL_DTM_PLN
 70
0
 62
7
  6
CONTINUOUS
370
-3
390
F
  0
LAYER
  5
1FE
100
AcDbSymbolTableRecord
100
AcDbLayerTableRecord
  2
01__ASM_ALL_DTM_PLN
 70
0
 62
7
  6
CONTINUOUS
370
-3
390
F
  0
LAYER
  5
1FF
100
AcDbSymbolTableRecord
100
AcDbLayerTableRecord
  2
01__ASM_DEF_DTM_PLN
 70
0
 62
7
  6
CONTINUOUS
370
-3
390
F
  0
LAYER
  5
200
100
AcDbSymbolTableRecord
100
AcDbLayerTableRecord
  2
01___PRT_ALL_DTM_PLN
 70
0
 62
7
  6
CONTINUOUS
370
-3
390
F
  0
LAYER
  5
201
100
AcDbSymbolTableRecord
100
AcDbLayerTableRecord
  2
01___PRT_DEF_DTM_PLN
 70
0
 62
7
  6
CONTINUOUS
370
-3
390
F
  0
LAYER
  5
202
100
AcDbSymbolTableRecord
100
AcDbLayerTableRecord
  2
02_ALL_AXES
 70
0
 62
7
  6
CONTINUOUS
370
-3
390
F
  0
LAYER
  5
203
100
AcDbSymbolTableRecord
100
AcDbLayerTableRecord
  2
02__ASM_ALL_AXES
 70
0
 62
7
  6
CONTINUOUS
370
-3
390
F
  0
LAYER
  5
204
100
AcDbSymbolTableRecord
100
AcDbLayerTableRecord
  2
02___PRT_ALL_AXES
 70
0
 62
7
  6
CONTINUOUS
370
-3
390
F
  0
LAYER
  5
205
100
AcDbSymbolTableRecord
100
AcDbLayerTableRecord
  2
03_ALL_CURVES
 70
0
 62
7
  6
CONTINUOUS
370
-3
390
F
  0
LAYER
  5
206
100
AcDbSymbolTableRecord
100
AcDbLayerTableRecord
  2
03__ASM_ALL_CURVES
 70
0
 62
7
  6
CONTINUOUS
370
-3
390
F
  0
LAYER
  5
207
100
AcDbSymbolTableRecord
100
AcDbLayerTableRecord
  2
03___PRT_ALL_CURVES
 70
0
 62
7
  6
CONTINUOUS
370
-3
390
F
  0
LAYER
  5
208
100
AcDbSymbolTableRecord
100
AcDbLayerTableRecord
  2
04_ALL_DTM_PNT
 70
0
 62
7
  6
CONTINUOUS
370
-3
390
F
  0
LAYER
  5
209
100
AcDbSymbolTableRecord
100
AcDbLayerTableRecord
  2
04__ASM_ALL_DTM_PNT
 70
0
 62
7
  6
CONTINUOUS
370
-3
390
F
  0
LAYER
  5
20A
100
AcDbSymbolTableRecord
100
AcDbLayerTableRecord
  2
04___PRT_ALL_DTM_PNT
 70
0
 62
7
  6
CONTINUOUS
370
-3
390
F
  0
LAYER
  5
20B
100
AcDbSymbolTableRecord
100
AcDbLayerTableRecord
  2
05_ALL_DTM_CSYS
 70
0
 62
7
  6
CONTINUOUS
370
-3
390
F
  0
LAYER
  5
20C
100
AcDbSymbolTableRecord
100
AcDbLayerTableRecord
  2
05__ASM_ALL_DTM_CSYS
 70
0
 62
7
  6
CONTINUOUS
370
-3
390
F
  0
LAYER
  5
20D
100
AcDbSymbolTableRecord
100
AcDbLayerTableRecord
  2
05__ASM_DEF_DTM_CSYS
 70
0
 62
7
  6
CONTINUOUS
370
-3
390
F
  0
LAYER
  5
20E
100
AcDbSymbolTableRecord
100
AcDbLayerTableRecord
  2
05___PRT_ALL_DTM_CSYS
 70
0
 62
7
  6
CONTINUOUS
370
-3
390
F
  0
LAYER
  5
20F
100
AcDbSymbolTableRecord
100
AcDbLayerTableRecord
  2
05___PRT_DEF_DTM_CSYS
 70
0
 62
7
  6
CONTINUOUS
370
-3
390
F
  0
LAYER
  5
210
100
AcDbSymbolTableRecord
100
AcDbLayerTableRecord
  2
06_ALL_SURFS
 70
0
 62
7
  6
CONTINUOUS
370
-3
390
F
  0
LAYER
  5
211
100
AcDbSymbolTableRecord
100
AcDbLayerTableRecord
  2
06__ASM_ALL_SURFS
 70
0
 62
7
  6
CONTINUOUS
370
-3
390
F
  0
LAYER
  5
212
100
AcDbSymbolTableRecord
100
AcDbLayerTableRecord
  2
06___PRT_ALL_SURFS
 70
0
 62
7
  6
CONTINUOUS
370
-3
390
F
  0
LAYER
  5
213
100
AcDbSymbolTableRecord
100
AcDbLayerTableRecord
  2
07__ASM_ALL_SKELETONS
 70
0
 62
7
  6
CONTINUOUS
370
-3
390
F
  0
LAYER
  5
214
100
AcDbSymbolTableRecord
100
AcDbLayerTableRecord
  2
CLOSED_SHELL
 70
0
 62
7
  6
CONTINUOUS
370
-3
390
F
  0
LAYER
  5
215
100
AcDbSymbolTableRecord
100
AcDbLayerTableRecord
  2
WHITE
 70
0
 62
7
  6
CONTINUOUS
370
-3
390
F
  0
ENDTAB
  0
TABLE
  2
STYLE
  5
3
100
AcDbSymbolTable
 70
1
  0
STYLE
  5
11
100
AcDbSymbolTableRecord
100
AcDbTextStyleTableRecord
  2
STANDARD
 70
0
 40
0.0
 41
0.8
 50
0.0
 71
0
 42
0.2
  3
txt
  4

  0
STYLE
  5
216
100
AcDbSymbolTableRecord
100
AcDbTextStyleTableRecord
  2
TEXTSTYLE_1
 70
0
 40
0.0
 41
0.8
 50
0.0
 71
0
 42
0.2
  3
gdt
  4

  0
STYLE
  5
217
100
AcDbSymbolTableRecord
100
AcDbTextStyleTableRecord
  2
TEXTSTYLE_2
 70
0
 40
0.0
 41
1.0
 50
0.0
 71
0
 42
0.2
  3
triumb.ttf
  4

  0
STYLE
  5
218
100
AcDbSymbolTableRecord
100
AcDbTextStyleTableRecord
  2
TEXTSTYLE_3
 70
0
 40
0.0
 41
1.0
 50
0.0
 71
0
 42
0.2
  3
triumbi.ttf
  4

  0
ENDTAB
  0
TABLE
  2
VIEW
  5
6
100
AcDbSymbolTable
 70
0
  0
ENDTAB
  0
TABLE
  2
UCS
  5
7
100
AcDbSymbolTable
 70
0
  0
ENDTAB
  0
TABLE
  2
APPID
  5
9
100
AcDbSymbolTable
 70
1
  0
APPID
  5
219
100
AcDbSymbolTableRecord
100
AcDbRegAppTableRecord
  2
ACAD
 70
0
  0
ENDTAB
  0
TABLE
  2
BLOCK_RECORD
  5
1
100
AcDbSymbolTable
 70
0
  0
BLOCK_RECORD
  5
21A
100
AcDbSymbolTableRecord
100
AcDbBlockTableRecord
  2
*Model_Space
  0
BLOCK_RECORD
  5
21B
100
AcDbSymbolTableRecord
100
AcDbBlockTableRecord
  2
*Paper_Space
  0
BLOCK_RECORD
  5
21C
100
AcDbSymbolTableRecord
100
AcDbBlockTableRecord
  2
_CLOSED
  0
BLOCK_RECORD
  5
21D
100
AcDbSymbolTableRecord
100
AcDbBlockTableRecord
  2
*D0
  0
BLOCK_RECORD
  5
21E
100
AcDbSymbolTableRecord
100
AcDbBlockTableRecord
  2
*D1
  0
BLOCK_RECORD
  5
21F
100
AcDbSymbolTableRecord
100
AcDbBlockTableRecord
  2
*D2
  0
ENDTAB
  0
TABLE
  2
DIMSTYLE
  5
A
100
AcDbSymbolTable
 70
1
100
AcDbDimStyleTable
 71
0
  0
DIMSTYLE
105
220
100
AcDbSymbolTableRecord
100
AcDbDimStyleTableRecord
  2
STANDARD
 70
0
  3

  4

 40
1.0
 41
0.1875
 42
0.0625
 43
0.38
 44
0.125
 45
0.0
 46
0.0
 47
0.001
 48
0.001
140
0.15625
141
0.09
142
0.0
143
25.4
144
1.0
145
0.0
146
1.0
147
0.09
 71
0.0
 72
0.0
 73
1
 74
1
 75
0
 76
0
 77
0
 78
4
170
0
171
2
172
0
173
0
174
0
175
0
176
0
177
0
178
0
270
2
271
3
272
3
273
2
274
2
275
0
280
0
281
0
282
0
283
1
284
4
285
0
286
0
287
3
288
0
340
11
278
46
341
21C
342
21C
343
21C
344
21C
  0
DIMSTYLE
105
221
100
AcDbSymbolTableRecord
100
AcDbDimStyleTableRecord
  2
DIMSTYLE_1
 70
0
  3
<>
  4

 40
1.0
 41
0.1875
 42
0.0625
 43
0.38
 44
0.125
 45
0.0
 46
0.0
 47
0.0
 48
0.0
140
0.25
141
0.09
142
0.0
143
25.4
144
1.0
145
0.0
146
1.0
147
0.09
 71
0.0
 72
0.0
 73
1
 74
1
 75
0
 76
0
 77
0
 78
4
170
0
171
2
172
0
173
0
174
0
175
0
176
0
177
0
178
0
270
2
271
1
272
1
273
2
274
2
275
0
280
0
281
0
282
0
283
1
284
4
285
0
286
0
287
3
288
0
340
217
278
46
341
21C
342
21C
343
21C
344
21C
  0
DIMSTYLE
105
222
100
AcDbSymbolTableRecord
100
AcDbDimStyleTableRecord
  2
DIMSTYLE_2
 70
0
  3

  4

 40
1.0
 41
0.1875
 42
0.0625
 43
0.38
 44
0.125
 45
0.0
 46
0.0
 47
0.0
 48
0.0
140
0.25
141
0.09
142
0.0
143
25.4
144
1.0
145
0.0
146
1.0
147
0.125
 71
0.0
 72
0.0
 73
1
 74
1
 75
0
 76
0
 77
0
 78
4
170
0
171
2
172
0
173
0
174
0
175
0
176
0
177
0
178
0
270
2
271
1
272
1
273
2
274
2
275
0
280
0
281
0
282
0
283
1
284
4
285
0
286
0
287
3
288
0
340
217
278
46
341
21C
342
21C
343
21C
344
21C
  0
ENDTAB
  0
ENDSEC
  0
SECTION
  2
BLOCKS
  0
BLOCK
  5
20
100
AcDbEntity
  8
0
100
AcDbBlockBegin
  2
*Model_Space
 70
0
 10
0.0
 20
0.0
 30
0.0
  3
*Model_Space
  1

  0
ENDBLK
  5
21
100
AcDbEntity
  8
0
100
AcDbBlockEnd
  0
BLOCK
  5
1C
100
AcDbEntity
  8
0
100
AcDbBlockBegin
  2
*Paper_Space
 70
0
 10
0.0
 20
0.0
 30
0.0
  3
*Paper_Space
  1

  0
ENDBLK
  5
1D
100
AcDbEntity
  8
0
100
AcDbBlockEnd
  0
BLOCK
  5
223
100
AcDbEntity
  8
0
100
AcDbBlockBegin
  2
_CLOSED
 70
64
 10
0.0
 20
0.0
  3
_CLOSED
  1

  0
LINE
  5
224
100
AcDbEntity
  8
0
  6
BYBLOCK
 62
0
100
AcDbLine
 10
0.0
 20
0.0
 11
-1.0
 21
0.1666666667
  0
LINE
  5
225
100
AcDbEntity
  8
0
  6
BYBLOCK
 62
0
100
AcDbLine
 10
-1.0
 20
0.1666666667
 11
-1.0
 21
-0.1666666667
  0
LINE
  5
226
100
AcDbEntity
  8
0
  6
BYBLOCK
 62
0
100
AcDbLine
 10
-1.0
 20
-0.1666666667
 11
0.0
 21
0.0
  0
LINE
  5
227
100
AcDbEntity
  8
0
  6
BYBLOCK
 62
0
100
AcDbLine
 10
-1.0
 20
0.0
 11
0.0
 21
0.0
  0
ENDBLK
  5
228
100
AcDbEntity
  8
0
  6
BYBLOCK
 62
0
100
AcDbBlockEnd
  0
BLOCK
  5
229
100
AcDbEntity
  8
0
100
AcDbBlockBegin
 62
2
  6
CONTINUOUS
  2
*D0
 70
65
 10
0.0
 20
0.0
  3
*D0
  1

  0
MTEXT
  5
22A
100
AcDbEntity
  8
0
100
AcDbMText
 62
2
  6
CONTINUOUS
  7
TEXTSTYLE_2
 71
1
 72
1
 10
4.4734672954
 20
25.9490901864
 30
0.0
 11
1.0
 21
0.0
 31
0.0
 44
0.9
  1
10mm(R.4")
 40
0.25
 41
1.9796296296
  0
LINE
  5
22B
100
AcDbEntity
  8
0
100
AcDbLine
 62
2
  6
CONTINUOUS
 10
2.7138783576
 20
26.9234312704
 11
4.2234672954
 21
25.8240901864
  0
LINE
  5
22C
100
AcDbEntity
  8
0
100
AcDbLine
 62
2
  6
CONTINUOUS
 10
4.2234672954
 20
25.8240901864
 11
4.3484672954
 21
25.8240901864
  0
INSERT
  5
22D
100
AcDbEntity
  8
0
100
AcDbBlockReference
 62
2
  6
CONTINUOUS
  2
_CLOSED
 10
2.7138783576
 20
26.9234312704
 41
0.1875
 42
0.1875
 43
0.1875
 50
143.9364439053
  0
ENDBLK
  5
22E
100
AcDbEntity
  8
0
  6
BYBLOCK
 62
0
100
AcDbBlockEnd
  0
BLOCK
  5
22F
100
AcDbEntity
  8
0
100
AcDbBlockBegin
 62
2
  6
CONTINUOUS
  2
*D1
 70
65
 10
0.0
 20
0.0
  3
*D1
  1

  0
MTEXT
  5
230
100
AcDbEntity
  8
0
100
AcDbMText
 62
2
  6
CONTINUOUS
  7
TEXTSTYLE_2
 71
2
 72
1
 10
34.2163320719
 20
20.2408461906
 30
0.0
 11
1.0
 21
0.0
 31
0.0
 44
0.9
  1
482mm(19.0")
 40
0.25
 41
2.3305555556
  0
LINE
  5
231
100
AcDbEntity
  8
0
100
AcDbLine
 62
2
  6
CONTINUOUS
 10
40.4322305183
 20
27.0853673715
 11
34.0913320719
 21
27.0853673715
  0
LINE
  5
232
100
AcDbEntity
  8
0
100
AcDbLine
 62
2
  6
CONTINUOUS
 10
40.4322305183
 20
8.0853673715
 11
34.0913320719
 21
8.0853673715
  0
LINE
  5
233
100
AcDbEntity
  8
0
100
AcDbLine
 62
2
  6
CONTINUOUS
 10
34.2163320719
 20
27.0853673715
 11
34.2163320719
 21
20.3658461906
  0
LINE
  5
234
100
AcDbEntity
  8
0
100
AcDbLine
 62
2
  6
CONTINUOUS
 10
34.2163320719
 20
8.0853673715
 11
34.2163320719
 21
19.8658461906
  0
INSERT
  5
235
100
AcDbEntity
  8
0
100
AcDbBlockReference
 62
2
  6
CONTINUOUS
  2
_CLOSED
 10
34.2163320719
 20
27.0853673715
 41
0.1875
 42
0.1875
 43
0.1875
 50
90.0
  0
INSERT
  5
236
100
AcDbEntity
  8
0
100
AcDbBlockReference
 62
2
  6
CONTINUOUS
  2
_CLOSED
 10
34.2163320719
 20
8.0853673715
 41
0.1875
 42
0.1875
 43
0.1875
 50
270.0
  0
ENDBLK
  5
237
100
AcDbEntity
  8
0
  6
BYBLOCK
 62
0
100
AcDbBlockEnd
  0
BLOCK
  5
238
100
AcDbEntity
  8
0
100
AcDbBlockBegin
 62
2
  6
CONTINUOUS
  2
*D2
 70
65
 10
0.0
 20
0.0
  3
*D2
  1

  0
MTEXT
  5
239
100
AcDbEntity
  8
0
100
AcDbMText
 62
2
  6
CONTINUOUS
  7
TEXTSTYLE_2
 71
2
 72
1
 10
27.2773538248
 20
13.0575915282
 30
0.0
 11
1.0
 21
0.0
 31
0.0
 44
0.9
  1
972mm(38.3")
 40
0.25
 41
2.3305555556
  0
LINE
  5
23A
100
AcDbEntity
  8
0
100
AcDbLine
 62
2
  6
CONTINUOUS
 10
40.8884313057
 20
8.5415681589
 11
40.8884313057
 21
13.0575915282
  0
LINE
  5
23B
100
AcDbEntity
  8
0
100
AcDbLine
 62
2
  6
CONTINUOUS
 10
2.6384313057
 20
8.5415681589
 11
2.6384313057
 21
13.0575915282
  0
LINE
  5
23C
100
AcDbEntity
  8
0
100
AcDbLine
 62
2
  6
CONTINUOUS
 10
40.8884313057
 20
12.9325915282
 11
28.5676316026
 21
12.9325915282
  0
LINE
  5
23D
100
AcDbEntity
  8
0
100
AcDbLine
 62
2
  6
CONTINUOUS
 10
2.6384313057
 20
12.9325915282
 11
25.987076047
 21
12.9325915282
  0
INSERT
  5
23E
100
AcDbEntity
  8
0
100
AcDbBlockReference
 62
2
  6
CONTINUOUS
  2
_CLOSED
 10
40.8884313057
 20
12.9325915282
 41
0.1875
 42
0.1875
 43
0.1875
  0
INSERT
  5
23F
100
AcDbEntity
  8
0
100
AcDbBlockReference
 62
2
  6
CONTINUOUS
  2
_CLOSED
 10
2.6384313057
 20
12.9325915282
 41
0.1875
 42
0.1875
 43
0.1875
 50
180.0
  0
ENDBLK
  5
240
100
AcDbEntity
  8
0
  6
BYBLOCK
 62
0
100
AcDbBlockEnd
  0
ENDSEC
  0
SECTION
  2
ENTITIES
  0
HATCH
  5
241
100
AcDbEntity
  8
0
100
AcDbHatch
 62
2
  6
CONTINUOUS
 10
0.0
 20
0.0
 30
0.0
210
0.0
220
0.0
230
1.0
  2
default__1
 70
1
 71
0
 91
2
 92
1
 93
4
 72
1
 10
18.9937611658
 20
12.1236484403
 11
18.9937611658
 21
11.9569817736
 72
1
 10
19.9937611658
 20
12.1236484403
 11
18.9937611658
 21
12.1236484403
 72
1
 10
19.9937611658
 20
11.9569817736
 11
19.9937611658
 21
12.1236484403
 72
1
 10
18.9937611658
 20
11.9569817736
 11
19.9937611658
 21
11.9569817736
 97
0
 92
1
 93
4
 72
1
 10
11.6289317695
 20
11.9569817736
 11
12.6289317695
 21
11.9569817736
 72
1
 10
11.6289317695
 20
12.1236484403
 11
11.6289317695
 21
11.9569817736
 72
1
 10
12.6289317695
 20
12.1236484403
 11
11.6289317695
 21
12.1236484403
 72
1
 10
12.6289317695
 20
11.9569817736
 11
12.6289317695
 21
12.1236484403
 97
0
 75
0
 76
1
 98
1
 10
0.0
 20
0.0
  0
HATCH
  5
242
100
AcDbEntity
  8
0
100
AcDbHatch
 62
2
  6
CONTINUOUS
 10
0.0
 20
0.0
 30
0.0
210
0.0
220
0.0
230
1.0
  2
default__2
 70
1
 71
0
 91
1
 92
1
 93
76
 72
1
 10
12.5983573821
 20
11.9044883353
 11
12.7326368829
 21
11.9044883353
 72
2
 10
12.5983573821
 20
11.8913649757
 40
0.0131233596
 50
90.0
 51
169.0
 73
1
 72
1
 10
12.5830752046
 20
11.881522456
 11
12.5854751356
 21
11.8938690308
 72
1
 10
12.5633149716
 20
11.881522456
 11
12.5830752046
 21
11.881522456
 72
1
 10
12.5678206509
 20
11.9330226068
 11
12.5633149716
 21
11.881522456
 72
2
 10
12.5939674934
 20
11.9307350545
 40
0.0262467192
 50
90.0
 51
175.0
 73
1
 72
1
 10
12.5939674934
 20
11.9569817736
 11
12.7692154086
 21
11.9569817736
 72
2
 10
12.7692154086
 20
11.9307350545
 40
0.0262467192
 50
45.0847506526
 51
90.0
 73
1
 72
2
 10
12.8062789294
 20
11.9679083849
 40
0.0262467192
 50
225.0847506526
 51
269.0
 73
1
 72
1
 10
12.916487015
 20
11.9397339783
 11
12.805820861
 21
11.9416656632
 72
2
 10
12.9164698374
 20
11.9387498762
 40
0.000984252
 50
3.0
 51
89.0000000001
 73
1
 72
1
 10
12.9174527405
 20
11.938801388
 11
12.9175976447
 21
11.9360364502
 72
2
 10
12.9185805478
 20
11.9360879619
 40
0.000984252
 50
183.0000000001
 51
269.0000000001
 73
1
 72
1
 10
12.97640663
 20
11.934094202
 11
12.9185633703
 21
11.9351038599
 72
2
 10
12.9764238076
 20
11.9350783041
 40
0.000984252
 50
268.9999999999
 51
356.9999999999
 73
1
 72
1
 10
12.9775477568
 20
11.9377181123
 11
12.9774067107
 21
11.9350267923
 72
2
 10
12.9785306599
 20
11.9376666006
 40
0.000984252
 50
89.0
 51
177.0000000001
 73
1
 72
1
 10
14.1873307196
 20
11.9175513189
 11
12.9785478374
 21
11.9386507026
 72
1
 10
14.1873307196
 20
11.9175513189
 11
15.581687675
 21
11.8852459915
 72
1
 10
15.6663387857
 20
11.8837684008
 11
15.581687675
 21
11.8852459915
 72
2
 10
15.6658807173
 20
11.8575256792
 40
0.0262467192
 50
7.0
 51
89.0
 73
1
 72
1
 10
15.6919317974
 20
11.8607243496
 11
15.8315562996
 21
10.7235740334
 72
2
 10
15.896684
 20
10.7315707091
 40
0.065616798
 50
186.9999996113
 51
268.7010380446
 73
1
 72
1
 10
15.9173089262
 20
10.6654689654
 11
15.8951965181
 21
10.6659707661
 72
2
 10
15.9170856257
 20
10.6556289791
 40
0.0098425197
 50
45.0
 51
88.7
 73
1
 72
1
 10
15.9303433413
 20
10.6562906883
 11
15.9240453381
 21
10.6625886915
 72
2
 10
15.9326632454
 20
10.6586105924
 40
0.0032808399
 50
225.0
 51
261.0000000003
 73
1
 72
1
 10
16.0608124841
 20
10.634992011
 11
15.932150009
 21
10.6553701451
 72
2
 10
16.0592727748
 20
10.6252706691
 40
0.0098425197
 50
45.0
 51
81.0000000003
 73
1
 72
1
 10
16.0730598767
 20
10.625402992
 11
16.0662324872
 21
10.6322303815
 72
2
 10
16.0753797808
 20
10.6277228961
 40
0.0032808399
 50
225.0
 51
261.0000000003
 73
1
 72
1
 10
16.1139142905
 20
10.6182978934
 11
16.0748665444
 21
10.6244824488
 72
2
 10
16.1190466549
 20
10.6507023665
 40
0.032808399
 50
261.0000000003
 51
270.0
 73
1
 72
1
 10
16.1190466549
 20
10.6178939676
 11
16.5010216085
 21
10.6178939676
 72
2
 10
16.5010216085
 20
10.6507023665
 40
0.032808399
 50
270.0
 51
278.9999999997
 73
1
 72
1
 10
16.5061539728
 20
10.6182978934
 11
16.545201719
 21
10.6244824488
 72
2
 10
16.5446884825
 20
10.6277228961
 40
0.0032808399
 50
278.9999999997
 51
315.0
 73
1
 72
1
 10
16.5470083867
 20
10.625402992
 11
16.5538357762
 21
10.6322303815
 72
2
 10
16.5607954886
 20
10.6252706691
 40
0.0098425197
 50
98.9999999997
 51
135.0
 73
1
 72
1
 10
16.5592557793
 20
10.634992011
 11
16.6879182544
 21
10.6553701451
 72
2
 10
16.687405018
 20
10.6586105924
 40
0.0032808399
 50
278.9999999997
 51
315.0
 73
1
 72
1
 10
16.6897249221
 20
10.6562906883
 11
16.6960229253
 21
10.6625886915
 72
2
 10
16.7029826377
 20
10.6556289791
 40
0.0098425197
 50
91.2999999999
 51
135.0
 73
1
 72
1
 10
16.7027593372
 20
10.6654689654
 11
18.6199170019
 21
10.708975359
 72
2
 10
18.6184283336
 20
10.7745752243
 40
0.0656167978
 50
271.3000182716
 51
352.9999997953
 73
1
 72
1
 10
18.8268892265
 20
11.9339337249
 11
18.6835560337
 21
10.766578548
 72
2
 10
18.8529403066
 20
11.9307350545
 40
0.0262467192
 50
90.0
 51
173.0
 73
1
 72
1
 10
18.8529403066
 20
11.9569817736
 11
19.0287254419
 21
11.9569817736
 72
2
 10
19.0287254419
 20
11.9307350545
 40
0.0262467192
 50
5.0
 51
90.0
 73
1
 72
1
 10
19.0548722843
 20
11.9330226068
 11
19.0593779637
 21
11.881522456
 72
1
 10
19.0396177307
 20
11.881522456
 11
19.0593779637
 21
11.881522456
 72
1
 10
19.0396177307
 20
11.881522456
 11
19.0372177997
 21
11.8938690308
 72
2
 10
19.0243355532
 20
11.8913649757
 40
0.0131233596
 50
11.0
 51
90.0
 73
1
 72
1
 10
18.8927716209
 20
11.9044883353
 11
19.0243355532
 21
11.9044883353
 72
2
 10
18.8927716209
 20
11.8782416161
 40
0.0262467192
 50
90.0
 51
173.0
 73
1
 72
1
 10
18.8667205408
 20
11.8814402866
 11
18.7290287968
 21
10.7600310235
 72
2
 10
18.6117989387
 20
10.7744250436
 40
0.1181102342
 50
271.2999935459
 51
352.9999983448
 73
1
 72
1
 10
16.7902561161
 20
10.6149475919
 11
18.6144785367
 21
10.6563449898
 72
2
 10
16.7932334564
 20
10.4837477744
 40
0.1312335958
 50
91.2999999999
 51
98.9999999997
 73
1
 72
1
 10
16.5792692745
 20
10.5827286163
 11
16.7727039991
 21
10.6133656669
 72
2
 10
16.5864545846
 20
10.537362354
 40
0.0459317585
 50
98.9999999997
 51
126.3689212421
 73
1
 72
2
 10
16.5319811538
 20
10.6113322878
 40
0.0459317585
 50
270.0
 51
306.3689212421
 73
1
 72
1
 10
16.0880871095
 20
10.5654005292
 11
16.5319811538
 21
10.5654005292
 72
2
 10
16.0880871095
 20
10.6113322878
 40
0.0459317585
 50
233.6310787579
 51
270.0
 73
1
 72
2
 10
16.0336136788
 20
10.537362354
 40
0.0459317585
 50
53.6310787579
 51
81.0000000003
 73
1
 72
1
 10
16.0407989888
 20
10.5827286163
 11
15.8857544989
 21
10.6072852511
 72
2
 10
15.9042308504
 20
10.7239438252
 40
0.1181096705
 50
187.000187895
 51
261.000264215
 73
1
 72
1
 10
15.6547964785
 20
11.7862737909
 11
15.7870015987
 21
10.7095494928
 72
2
 10
15.6026943183
 20
11.7798764501
 40
0.0524934383
 50
7.0
 51
89.0
 73
1
 72
1
 10
15.6036104551
 20
11.8323618934
 11
15.532749207
 21
11.8335987811
 72
2
 10
15.533894378
 20
11.8992055852
 40
0.0656167979
 50
264.2421965568
 51
269.0
 73
1
 72
2
 10
15.5246783019
 20
11.8078055321
 40
0.0262467192
 50
84.2421965568
 51
88.6727732601
 73
1
 72
1
 10
14.1862647054
 20
11.8650684917
 11
15.5252862391
 21
11.8340452097
 72
1
 10
14.1862647054
 20
11.8650684917
 11
12.7853056919
 21
11.8895223223
 72
2
 10
12.7866798971
 20
11.9682504872
 40
0.0787401575
 50
239.0186049163
 51
269.0
 73
1
 72
2
 10
12.7326368829
 20
11.8782416161
 40
0.0262467192
 50
59.0186049163
 51
90.0
 73
1
 97
0
 75
0
 76
1
 98
1
 10
0.0
 20
0.0
  0
DIMENSION
  5
243
100
AcDbEntity
  8
0
100
AcDbDimension
 62
2
  6
CONTINUOUS
  2
*D0
 10
3.0321320931
 20
26.6916665841
 11
5.4632821102
 21
25.8240901864
 70
164
 71
1
 42
0.3937007874
  1
10mm(R<>")
  3
DIMSTYLE_1
100
AcDbRadialDimension
 15
2.7138783576
 25
26.9234312704
  0
DIMENSION
  5
244
100
AcDbEntity
  8
0
100
AcDbDimension
 62
2
  6
CONTINUOUS
  2
*D1
 10
34.2163320719
 20
8.0853673715
 11
34.2163320719
 21
20.1158461906
 70
160
 71
2
 42
19.0
  1
482mm(<>")
  3
DIMSTYLE_2
100
AcDbAlignedDimension
 13
40.4947305183
 23
27.0853673715
 14
40.4947305183
 24
8.0853673715
 50
270.0
100
AcDbRotatedDimension
  0
DIMENSION
  5
245
100
AcDbEntity
  8
0
100
AcDbDimension
 62
2
  6
CONTINUOUS
  2
*D2
 10
2.6384313057
 20
12.9325915282
 11
27.2773538248
 21
12.9325915282
 70
160
 71
2
 42
38.25
  1
972mm(<>")
  3
DIMSTYLE_2
100
AcDbAlignedDimension
 13
40.8884313057
 23
8.4790681589
 14
2.6384313057
 24
8.4790681589
 50
180.0
100
AcDbRotatedDimension
  0
LEADER
  5
246
100
AcDbEntity
  8
0
100
AcDbLeader
 62
2
  6
CONTINUOUS
  3
STANDARD
 71
1
 72
0
 73
0
 75
0
 40
0.25
 41
1.6212962963
 76
3
 10
40.8884313057
 20
10.5611274592
 30
0.0
 10
37.9333605305
 20
11.4268313667
 30
0.0
 10
37.6833605305
 20
11.4268313667
 30
0.0
340
247
1001
ACAD
1000
DSTYLE
1002
{
1070
77
1070
0
1002
}
  0
MTEXT
  5
247
102
{ACAD_REACTORS
330
246
102
}
100
AcDbEntity
  8
0
100
AcDbMText
 62
2
  6
CONTINUOUS
  7
TEXTSTYLE_2
 71
3
 72
1
 10
37.6833605305
 20
11.5518313667
 30
0.0
 11
1.0
 21
0.0
 31
0.0
 44
0.9
  1
CUT LINE
 40
0.25
 41
1.6212962963
  0
MTEXT
  5
248
100
AcDbEntity
  8
0
100
AcDbMText
 62
2
  6
CONTINUOUS
  7
TEXTSTYLE_2
 71
1
 72
1
 10
11.6542214929
 20
21.004265896
 30
0.0
 11
1.0
 21
0.0
 31
0.0
 44
0.9
  1
www.bocchiusa.com\P \PModel No. 1635-xxx-0126\P \P\Ftriumbi.ttf;\H0.75;Undermount\P\Ftriumb.ttf;\H0.437; \PCustomer Service: +1 877-565-2221
 40
0.437
 41
10.615862963
  0
MTEXT
  5
249
100
AcDbEntity
  8
0
100
AcDbMText
 62
2
  6
CONTINUOUS
  7
TEXTSTYLE_2
 71
1
 72
1
 10
11.6023340921
 20
15.2540129423
 30
0.0
 11
1.0
 21
0.0
 31
0.0
 44
0.9
  1
Note:  Cutout template is provided as a guide only and\Pmust be checked against actual sink to verify correct fit.
 40
0.25
 41
9.4712962963
  0
MTEXT
  5
24A
100
AcDbEntity
  8
0
100
AcDbMText
 62
2
  6
CONTINUOUS
  7
TEXTSTYLE_2
 71
1
 72
1
 10
41.8452632124
 20
0.6773947125
 30
0.0
 11
1.0
 21
0.0
 31
0.0
 44
0.9
  1
05/24/2023
 40
0.25
 41
1.8166666667
  0
MTEXT
  5
24B
100
AcDbEntity
  8
0
100
AcDbMText
 62
2
  6
CONTINUOUS
  7
TEXTSTYLE_2
 71
1
 72
1
 10
38.8865356606
 20
33.3934421447
 30
0.0
 11
1.0
 21
0.0
 31
0.0
 44
0.9
  1
Model No. 1635-xxx-0126
 40
0.25
 41
4.2046296296
  0
MTEXT
  5
24C
100
AcDbEntity
  8
0
100
AcDbMText
 62
2
  6
CONTINUOUS
  7
TEXTSTYLE_3
 71
1
 72
1
 10
13.9628947978
 20
9.9479256762
 30
0.0
 11
1.0
 21
0.0
 31
0.0
 44
0.9
  1
Under-Mount
 40
0.25
 41
2.1648148148
  0
LINE
  5
24D
100
AcDbEntity
  8
0
100
AcDbLine
 62
7
  6
CONTINUOUS
 10
0.0
 20
0.0
 11
0.0
 21
34.0
  0
LINE
  5
24E
100
AcDbEntity
  8
0
100
AcDbLine
 62
7
  6
CONTINUOUS
 10
0.0
 20
0.0
 11
44.0
 21
0.0
  0
LINE
  5
24F
100
AcDbEntity
  8
0
100
AcDbLine
 62
7
  6
CONTINUOUS
 10
0.0
 20
34.0
 11
44.0
 21
34.0
  0
LINE
  5
250
100
AcDbEntity
  8
0
100
AcDbLine
 62
7
  6
CONTINUOUS
 10
44.0
 20
0.0
 11
44.0
 21
34.0
  0
LINE
  5
251
100
AcDbEntity
  8
03___PRT_ALL_CURVES
100
AcDbLine
 62
2
  6
CONTINUOUS
 10
2.6171320931
 20
8.4790681589
 11
2.6171320931
 21
26.6916665841
  0
LINE
  5
252
100
AcDbEntity
  8
03___PRT_ALL_CURVES
100
AcDbLine
 62
2
  6
CONTINUOUS
 10
2.6384313057
 20
8.4790681589
 11
2.6384313057
 21
26.6916665841
  0
LINE
  5
253
100
AcDbEntity
  8
0
100
AcDbLine
 62
2
  6
CONTINUOUS
 10
11.7385534515
 20
23.443655894
 11
11.7385534515
 21
21.7903029091
  0
LINE
  5
254
100
AcDbEntity
  8
0
100
AcDbLine
 62
2
  6
CONTINUOUS
 10
13.4782162368
 20
23.1575001821
 11
13.3805421796
 21
22.9508144251
  0
LINE
  5
255
100
AcDbEntity
  8
0
100
AcDbLine
 62
2
  6
CONTINUOUS
 10
12.6787793622
 20
22.9008596007
 11
12.6424510003
 21
22.8463537508
  0
LINE
  5
256
100
AcDbEntity
  8
0
100
AcDbLine
 62
2
  6
CONTINUOUS
 10
13.0251363595
 20
22.7725526172
 11
13.0966752875
 21
22.862242419
  0
LINE
  5
257
100
AcDbEntity
  8
0
100
AcDbLine
 62
2
  6
CONTINUOUS
 10
13.6439959922
 20
23.3391686056
 11
13.4782162368
 21
23.1575001821
  0
LINE
  5
258
100
AcDbEntity
  8
0
100
AcDbLine
 62
2
  6
CONTINUOUS
 10
12.1882267131
 20
22.7918479009
 11
12.1837023018
 21
23.0916300754
  0
LINE
  5
259
100
AcDbEntity
  8
0
100
AcDbLine
 62
2
  6
CONTINUOUS
 10
12.1837023018
 20
22.1423021135
 11
12.1837023018
 21
22.4761504442
  0
LINE
  5
25A
100
AcDbEntity
  8
0
100
AcDbLine
 62
2
  6
CONTINUOUS
 10
12.6787793622
 20
22.9712541188
 11
12.6787793622
 21
22.9008596007
  0
LINE
  5
25B
100
AcDbEntity
  8
0
100
AcDbLine
 62
2
  6
CONTINUOUS
 10
12.7457938788
 20
22.3512766904
 11
12.7457938788
 21
22.2592980687
  0
LINE
  5
25C
100
AcDbEntity
  8
0
100
AcDbLine
 62
2
  6
CONTINUOUS
 10
12.9195312754
 20
22.62151712
 11
12.9195312754
 21
22.7055381005
  0
LINE
  5
25D
100
AcDbEntity
  8
0
100
AcDbLine
 62
2
  6
CONTINUOUS
 10
13.1261904182
 20
22.9826183756
 11
13.1261904182
 21
23.0848168441
  0
LINE
  5
25E
100
AcDbEntity
  8
0
100
AcDbLine
 62
2
  6
CONTINUOUS
 10
13.1738830368
 20
22.1105247772
 11
13.1738830368
 21
22.3921560778
  0
LINE
  5
25F
100
AcDbEntity
  8
0
100
AcDbLine
 62
2
  6
CONTINUOUS
 10
13.3805421796
 20
22.9508144251
 11
13.351027049
 21
22.6601343017
  0
LINE
  5
260
100
AcDbEntity
  8
0
100
AcDbLine
 62
2
  6
CONTINUOUS
 10
13.0966752875
 20
22.862242419
 11
13.1261904182
 21
22.9826183756
  0
LINE
  5
261
100
AcDbEntity
  8
0
100
AcDbLine
 62
2
  6
CONTINUOUS
 10
14.6160258534
 20
22.4671016214
 11
14.5683332348
 21
22.3671387444
  0
LINE
  5
262
100
AcDbEntity
  8
0
100
AcDbLine
 62
2
  6
CONTINUOUS
 10
13.82340221
 20
22.8531669821
 11
13.8710948287
 21
22.9326635512
  0
LINE
  5
263
100
AcDbEntity
  8
0
100
AcDbLine
 62
2
  6
CONTINUOUS
 10
13.0603203115
 20
21.9583448701
 11
13.1738830368
 21
22.1105247772
  0
LINE
  5
264
100
AcDbEntity
  8
0
100
AcDbLine
 62
2
  6
CONTINUOUS
 10
14.5683332348
 20
22.3671387444
 11
14.5002009224
 21
22.2785667383
  0
LINE
  5
265
100
AcDbEntity
  8
0
100
AcDbLine
 62
2
  6
CONTINUOUS
 10
13.8710948287
 20
22.9326635512
 11
13.9415159609
 21
23.0189467374
  0
LINE
  5
266
100
AcDbEntity
  8
0
100
AcDbLine
 62
2
  6
CONTINUOUS
 10
12.7457938788
 20
22.2592980687
 11
12.6833303877
 21
22.1968079634
  0
LINE
  5
267
100
AcDbEntity
  8
0
100
AcDbLine
 62
2
  6
CONTINUOUS
 10
12.9286067123
 20
21.844808759
 11
13.0603203115
 21
21.9583448701
  0
LINE
  5
268
100
AcDbEntity
  8
0
100
AcDbLine
 62
2
  6
CONTINUOUS
 10
13.7575587175
 20
23.4368426628
 11
13.6439959922
 21
23.3391686056
  0
LINE
  5
269
100
AcDbEntity
  8
0
100
AcDbLine
 62
2
  6
CONTINUOUS
 10
15.6629746441
 20
23.398225481
 11
15.4813062205
 21
23.2437833683
  0
LINE
  5
26A
100
AcDbEntity
  8
0
100
AcDbLine
 62
2
  6
CONTINUOUS
 10
13.9415159609
 20
23.0189467374
 11
14.030087967
 21
23.0825546384
  0
LINE
  5
26B
100
AcDbEntity
  8
0
100
AcDbLine
 62
2
  6
CONTINUOUS
 10
12.6424510003
 20
22.8463537508
 11
12.5584300198
 21
22.7918479009
  0
LINE
  5
26C
100
AcDbEntity
  8
0
100
AcDbLine
 62
2
  6
CONTINUOUS
 10
12.9195312754
 20
22.7055381005
 11
13.0251363595
 21
22.7725526172
  0
LINE
  5
26D
100
AcDbEntity
  8
0
100
AcDbLine
 62
2
  6
CONTINUOUS
 10
13.9165252417
 20
23.5117882064
 11
13.7575587175
 21
23.4368426628
  0
LINE
  5
26E
100
AcDbEntity
  8
03___PRT_ALL_CURVES
100
AcDbLine
 62
2
  6
CONTINUOUS
 10
40.4947305183
 20
8.0640681589
 11
3.0321320931
 21
8.0640681589
  0
LINE
  5
26F
100
AcDbEntity
  8
03___PRT_ALL_CURVES
100
AcDbLine
 62
2
  6
CONTINUOUS
 10
40.4947305183
 20
8.0853673715
 11
3.0321320931
 21
8.0853673715
  0
LINE
  5
270
100
AcDbEntity
  8
0
100
AcDbLine
 62
2
  6
CONTINUOUS
 10
13.82340221
 20
22.4693372129
 11
13.82340221
 21
22.8531669821
  0
LINE
  5
271
100
AcDbEntity
  8
0
100
AcDbLine
 62
2
  6
CONTINUOUS
 10
14.6364655471
 20
22.7327910255
 11
14.6364655471
 21
22.5919753752
  0
LINE
  5
272
100
AcDbEntity
  8
0
100
AcDbLine
 62
2
  6
CONTINUOUS
 10
14.6364655471
 20
22.5919753752
 11
14.6160258534
 21
22.4671016214
  0
LINE
  5
273
100
AcDbEntity
  8
0
100
AcDbLine
 62
2
  6
CONTINUOUS
 10
15.7402090075
 20
22.6782851756
 11
15.7719863439
 21
22.8191008259
  0
LINE
  5
274
100
AcDbEntity
  8
0
100
AcDbLine
 62
2
  6
CONTINUOUS
 10
15.3609302639
 20
23.0553017135
 11
15.3132376453
 21
22.862242419
  0
LINE
  5
275
100
AcDbEntity
  8
0
100
AcDbLine
 62
2
  6
CONTINUOUS
 10
15.0497838327
 20
22.3512766904
 11
15.0884010145
 21
22.5034033691
  0
LINE
  5
276
100
AcDbEntity
  8
0
100
AcDbLine
 62
2
  6
CONTINUOUS
 10
15.7719863439
 20
22.8191008259
 11
15.8476425156
 21
22.9845692675
  0
LINE
  5
277
100
AcDbEntity
  8
0
100
AcDbLine
 62
2
  6
CONTINUOUS
 10
14.949874184
 20
22.1650306271
 11
15.0497838327
 21
22.3512766904
  0
LINE
  5
278
100
AcDbEntity
  8
0
100
AcDbLine
 62
2
  6
CONTINUOUS
 10
15.4813062205
 20
23.2437833683
 11
15.3609302639
 21
23.0553017135
  0
LINE
  5
279
100
AcDbEntity
  8
0
100
AcDbLine
 62
2
  6
CONTINUOUS
 10
17.2232045974
 20
23.3369063999
 11
17.0733135101
 21
23.139322694
  0
LINE
  5
27A
100
AcDbEntity
  8
0
100
AcDbLine
 62
2
  6
CONTINUOUS
 10
14.7908810457
 20
21.9855977951
 11
14.949874184
 21
22.1650306271
  0
LINE
  5
27B
100
AcDbEntity
  8
0
100
AcDbLine
 62
2
  6
CONTINUOUS
 10
16.5032909061
 20
22.8940463695
 11
16.8303792338
 21
23.1802020815
  0
LINE
  5
27C
100
AcDbEntity
  8
0
100
AcDbLine
 62
2
  6
CONTINUOUS
 10
16.5146285487
 20
22.3966804892
 11
16.3715506927
 21
22.283144378
  0
LINE
  5
27D
100
AcDbEntity
  8
0
100
AcDbLine
 62
2
  6
CONTINUOUS
 10
15.8476425156
 20
22.9845692675
 11
15.9900097434
 21
23.0938922811
  0
LINE
  5
27E
100
AcDbEntity
  8
0
100
AcDbLine
 62
2
  6
CONTINUOUS
 10
17.3594692221
 20
23.4391048685
 11
17.2232045974
 21
23.3369063999
  0
LINE
  5
27F
100
AcDbEntity
  8
0
100
AcDbLine
 62
2
  6
CONTINUOUS
 10
14.6341767273
 20
21.8856881464
 11
14.7908810457
 21
21.9855977951
  0
LINE
  5
280
100
AcDbEntity
  8
0
100
AcDbLine
 62
2
  6
CONTINUOUS
 10
14.5002009224
 20
22.2785667383
 11
14.3798249658
 21
22.2081988344
  0
LINE
  5
281
100
AcDbEntity
  8
0
100
AcDbLine
 62
2
  6
CONTINUOUS
 10
12.8195950125
 20
21.7903029091
 11
12.9286067123
 21
21.844808759
  0
LINE
  5
282
100
AcDbEntity
  8
0
100
AcDbLine
 62
2
  6
CONTINUOUS
 10
12.6833303877
 20
22.1968079634
 11
12.5697676624
 21
22.1423021135
  0
LINE
  5
283
100
AcDbEntity
  8
0
100
AcDbLine
 62
2
  6
CONTINUOUS
 10
15.8560339386
 20
23.4867974871
 11
15.6629746441
 21
23.398225481
  0
LINE
  5
284
100
AcDbEntity
  8
0
100
AcDbLine
 62
2
  6
CONTINUOUS
 10
14.030087967
 20
23.0825546384
 11
14.1267438063
 21
23.1167711831
  0
LINE
  5
285
100
AcDbEntity
  8
0
100
AcDbLine
 62
2
  6
CONTINUOUS
 10
13.351027049
 20
22.6601343017
 11
13.3805421796
 21
22.3943916693
  0
LINE
  5
286
100
AcDbEntity
  8
0
100
AcDbLine
 62
2
  6
CONTINUOUS
 10
15.3132376453
 20
22.5761133212
 11
15.3314151333
 21
22.3603255131
  0
LINE
  5
287
100
AcDbEntity
  8
0
100
AcDbLine
 62
2
  6
CONTINUOUS
 10
15.0884010145
 20
22.5034033691
 11
15.0884010145
 21
22.7577817447
  0
LINE
  5
288
100
AcDbEntity
  8
0
100
AcDbLine
 62
2
  6
CONTINUOUS
 10
15.3132376453
 20
22.862242419
 11
15.3132376453
 21
22.5761133212
  0
LINE
  5
289
100
AcDbEntity
  8
0
100
AcDbLine
 62
2
  6
CONTINUOUS
 10
15.7402090075
 20
22.5556736275
 11
15.7402090075
 21
22.6782851756
  0
LINE
  5
28A
100
AcDbEntity
  8
0
100
AcDbLine
 62
2
  6
CONTINUOUS
 10
17.0733135101
 20
23.139322694
 11
16.9688794501
 21
22.9462900137
  0
LINE
  5
28B
100
AcDbEntity
  8
0
100
AcDbLine
 62
2
  6
CONTINUOUS
 10
17.3912997868
 20
22.8145498003
 11
17.4933977363
 21
22.9772700511
  0
LINE
  5
28C
100
AcDbEntity
  8
0
100
AcDbLine
 62
2
  6
CONTINUOUS
 10
16.700874612
 20
22.0264771825
 11
16.8121751316
 21
22.1605062158
  0
LINE
  5
28D
100
AcDbEntity
  8
0
100
AcDbLine
 62
2
  6
CONTINUOUS
 10
18.0703340906
 20
22.3376502279
 11
17.9636112107
 21
22.2150120656
  0
LINE
  5
28E
100
AcDbEntity
  8
0
100
AcDbLine
 62
2
  6
CONTINUOUS
 10
18.1475684541
 20
22.4239334141
 11
18.0703340906
 21
22.3376502279
  0
LINE
  5
28F
100
AcDbEntity
  8
0
100
AcDbLine
 62
2
  6
CONTINUOUS
 10
17.4933977363
 20
22.9772700511
 11
17.596652509
 21
23.0804976372
  0
LINE
  5
290
100
AcDbEntity
  8
0
100
AcDbLine
 62
2
  6
CONTINUOUS
 10
16.5534000667
 20
21.8971337594
 11
16.700874612
 21
22.0264771825
  0
LINE
  5
291
100
AcDbEntity
  8
0
100
AcDbLine
 62
2
  6
CONTINUOUS
 10
18.1475684541
 20
22.907672832
 11
18.4723147336
 21
23.166575619
  0
LINE
  5
292
100
AcDbEntity
  8
0
100
AcDbLine
 62
2
  6
CONTINUOUS
 10
16.3715506927
 20
22.283144378
 11
16.271641044
 21
22.2172476571
  0
LINE
  5
293
100
AcDbEntity
  8
0
100
AcDbLine
 62
2
  6
CONTINUOUS
 10
18.1725325592
 20
21.8925013776
 11
18.3519653912
 21
22.0083263087
  0
LINE
  5
294
100
AcDbEntity
  8
0
100
AcDbLine
 62
2
  6
CONTINUOUS
 10
16.3761283325
 20
21.8311822965
 11
16.5534000667
 21
21.8971337594
  0
LINE
  5
295
100
AcDbEntity
  8
0
100
AcDbLine
 62
2
  6
CONTINUOUS
 10
17.557052928
 20
23.5004239496
 11
17.3594692221
 21
23.4391048685
  0
LINE
  5
296
100
AcDbEntity
  8
0
100
AcDbLine
 62
2
  6
CONTINUOUS
 10
12.6992190559
 20
22.4398486965
 11
12.7457938788
 21
22.3512766904
  0
LINE
  5
297
100
AcDbEntity
  8
0
100
AcDbLine
 62
2
  6
CONTINUOUS
 10
13.3805421796
 20
22.3943916693
 11
13.4827406482
 21
22.1741326782
  0
LINE
  5
298
100
AcDbEntity
  8
0
100
AcDbLine
 62
2
  6
CONTINUOUS
 10
13.1261904182
 20
23.0848168441
 11
13.0716845683
 21
23.2256324944
  0
LINE
  5
299
100
AcDbEntity
  8
0
100
AcDbLine
 62
2
  6
CONTINUOUS
 10
14.6069238023
 20
22.8736066758
 11
14.6364655471
 21
22.7327910255
  0
LINE
  5
29A
100
AcDbEntity
  8
0
100
AcDbLine
 62
2
  6
CONTINUOUS
 10
16.9416265251
 20
22.7214533829
 11
16.9416265251
 21
22.5510959878
  0
LINE
  5
29B
100
AcDbEntity
  8
0
100
AcDbLine
 62
2
  6
CONTINUOUS
 10
16.9688794501
 20
22.9462900137
 11
16.9416265251
 21
22.7214533829
  0
LINE
  5
29C
100
AcDbEntity
  8
0
100
AcDbLine
 62
2
  6
CONTINUOUS
 10
17.3662824533
 20
22.6328813768
 11
17.3912997868
 21
22.8145498003
  0
LINE
  5
29D
100
AcDbEntity
  8
0
100
AcDbLine
 62
2
  6
CONTINUOUS
 10
18.3519653912
 20
22.0083263087
 11
18.4791279649
 21
22.1763682697
  0
LINE
  5
29E
100
AcDbEntity
  8
0
100
AcDbLine
 62
2
  6
CONTINUOUS
 10
13.1738830368
 20
22.3921560778
 11
13.0853110307
 21
22.5397583452
  0
LINE
  5
29F
100
AcDbEntity
  8
0
100
AcDbLine
 62
2
  6
CONTINUOUS
 10
12.6449869037
 20
23.0332069594
 11
12.6787793622
 21
22.9712541188
  0
LINE
  5
2A0
100
AcDbEntity
  8
0
100
AcDbLine
 62
2
  6
CONTINUOUS
 10
13.8801968798
 20
22.3558011018
 11
13.82340221
 21
22.4693372129
  0
LINE
  5
2A1
100
AcDbEntity
  8
0
100
AcDbLine
 62
2
  6
CONTINUOUS
 10
15.0884010145
 20
22.7577817447
 11
15.0429706015
 21
22.9667297074
  0
LINE
  5
2A2
100
AcDbEntity
  8
0
100
AcDbLine
 62
2
  6
CONTINUOUS
 10
18.6738142493
 20
23.4624207855
 11
18.6648079375
 21
21.794239917
  0
LINE
  5
2A3
100
AcDbEntity
  8
0
100
AcDbLine
 62
2
  6
CONTINUOUS
 10
13.0716845683
 20
23.2256324944
 11
12.9558596372
 21
23.3687103504
  0
LINE
  5
2A4
100
AcDbEntity
  8
0
100
AcDbLine
 62
2
  6
CONTINUOUS
 10
15.3314151333
 20
22.3603255131
 11
15.4176983195
 21
22.1854703208
  0
LINE
  5
2A5
100
AcDbEntity
  8
0
100
AcDbLine
 62
2
  6
CONTINUOUS
 10
15.0429706015
 20
22.9667297074
 11
14.9430609528
 21
23.1733888502
  0
LINE
  5
2A6
100
AcDbEntity
  8
0
100
AcDbLine
 62
2
  6
CONTINUOUS
 10
15.8060525
 20
22.3966804892
 11
15.7402090075
 21
22.5556736275
  0
LINE
  5
2A7
100
AcDbEntity
  8
0
100
AcDbLine
 62
2
  6
CONTINUOUS
 10
17.3958241982
 20
22.4829636754
 11
17.3662824533
 21
22.6328813768
  0
LINE
  5
2A8
100
AcDbEntity
  8
0
100
AcDbLine
 62
2
  6
CONTINUOUS
 10
16.9416265251
 20
22.5510959878
 11
16.9711150416
 21
22.3558011018
  0
LINE
  5
2A9
100
AcDbEntity
  8
0
100
AcDbLine
 62
2
  6
CONTINUOUS
 10
20.4300015092
 20
23.448072732
 11
20.4391029697
 21
21.7903029091
  0
LINE
  5
2AA
100
AcDbEntity
  8
0
100
AcDbLine
 62
2
  6
CONTINUOUS
 10
19.6584307074
 20
23.4374414201
 11
19.6611706435
 21
22.851480826
  0
LINE
  5
2AB
100
AcDbEntity
  8
0
100
AcDbLine
 62
2
  6
CONTINUOUS
 10
19.120212333
 20
21.794239917
 11
19.120212333
 21
22.4119551397
  0
LINE
  5
2AC
100
AcDbEntity
  8
0
100
AcDbLine
 62
2
  6
CONTINUOUS
 10
19.136074387
 20
22.851480826
 11
19.136074387
 21
23.4624207855
  0
LINE
  5
2AD
100
AcDbEntity
  8
0
100
AcDbLine
 62
2
  6
CONTINUOUS
 10
19.7072110039
 20
22.4119551397
 11
19.7072110039
 21
21.794239917
  0
LINE
  5
2AE
100
AcDbEntity
  8
0
100
AcDbLine
 62
2
  6
CONTINUOUS
 10
20.14672143
 20
21.794239917
 11
20.14672143
 21
23.4374414201
  0
LINE
  5
2AF
100
AcDbEntity
  8
0
100
AcDbLine
 62
2
  6
CONTINUOUS
 10
13.5906345522
 20
22.0662387742
 11
13.7439322551
 21
21.9288563537
  0
LINE
  5
2B0
100
AcDbEntity
  8
0
100
AcDbLine
 62
2
  6
CONTINUOUS
 10
13.4827406482
 20
22.1741326782
 11
13.5906345522
 21
22.0662387742
  0
LINE
  5
2B1
100
AcDbEntity
  8
0
100
AcDbLine
 62
2
  6
CONTINUOUS
 10
13.9755821171
 20
22.2604158644
 11
13.8801968798
 21
22.3558011018
  0
LINE
  5
2B2
100
AcDbEntity
  8
0
100
AcDbLine
 62
2
  6
CONTINUOUS
 10
14.4207043532
 20
23.0780036129
 11
14.5092763593
 21
22.9894316068
  0
LINE
  5
2B3
100
AcDbEntity
  8
0
100
AcDbLine
 62
2
  6
CONTINUOUS
 10
15.4176983195
 20
22.1854703208
 11
15.5517007386
 21
22.0287660024
  0
LINE
  5
2B4
100
AcDbEntity
  8
0
100
AcDbLine
 62
2
  6
CONTINUOUS
 10
14.5092763593
 20
22.9894316068
 11
14.6069238023
 21
22.8736066758
  0
LINE
  5
2B5
100
AcDbEntity
  8
0
100
AcDbLine
 62
2
  6
CONTINUOUS
 10
14.9430609528
 20
23.1733888502
 11
14.8474397413
 21
23.2907317378
  0
LINE
  5
2B6
100
AcDbEntity
  8
0
100
AcDbLine
 62
2
  6
CONTINUOUS
 10
15.8923623004
 20
22.2853799695
 11
15.8060525
 21
22.3966804892
  0
LINE
  5
2B7
100
AcDbEntity
  8
0
100
AcDbLine
 62
2
  6
CONTINUOUS
 10
17.4889206156
 20
22.3262593569
 11
17.3958241982
 21
22.4829636754
  0
LINE
  5
2B8
100
AcDbEntity
  8
0
100
AcDbLine
 62
2
  6
CONTINUOUS
 10
16.9711150416
 20
22.3558011018
 11
17.0574514562
 21
22.1809459095
  0
LINE
  5
2B9
100
AcDbEntity
  8
0
100
AcDbLine
 62
2
  6
CONTINUOUS
 10
20.8841985916
 20
21.7903029091
 11
20.8864874198
 21
23.4437417461
  0
LINE
  5
2BA
100
AcDbEntity
  8
0
100
AcDbLine
 62
2
  6
CONTINUOUS
 10
15.5517007386
 20
22.0287660024
 11
15.7242937252
 21
21.9038390202
  0
LINE
  5
2BB
100
AcDbEntity
  8
0
100
AcDbLine
 62
2
  6
CONTINUOUS
 10
16.4101944886
 20
22.9871427869
 11
16.5032909061
 21
22.8940463695
  0
LINE
  5
2BC
100
AcDbEntity
  8
0
100
AcDbLine
 62
2
  6
CONTINUOUS
 10
17.0574514562
 20
22.1809459095
 11
17.1959516724
 21
22.0083263087
  0
LINE
  5
2BD
100
AcDbEntity
  8
0
100
AcDbLine
 62
2
  6
CONTINUOUS
 10
14.0914070482
 20
22.2036211947
 11
13.9755821171
 21
22.2604158644
  0
LINE
  5
2BE
100
AcDbEntity
  8
0
100
AcDbLine
 62
2
  6
CONTINUOUS
 10
13.0853110307
 20
22.5397583452
 11
12.9195312754
 21
22.62151712
  0
LINE
  5
2BF
100
AcDbEntity
  8
0
100
AcDbLine
 62
2
  6
CONTINUOUS
 10
12.6129358697
 20
22.4829636754
 11
12.6992190559
 21
22.4398486965
  0
LINE
  5
2C0
100
AcDbEntity
  8
0
100
AcDbLine
 62
2
  6
CONTINUOUS
 10
16.0354401564
 20
22.2127232458
 11
15.8923623004
 21
22.2853799695
  0
LINE
  5
2C1
100
AcDbEntity
  8
0
100
AcDbLine
 62
2
  6
CONTINUOUS
 10
13.7439322551
 20
21.9288563537
 11
13.8733836486
 21
21.8629596328
  0
LINE
  5
2C2
100
AcDbEntity
  8
0
100
AcDbLine
 62
2
  6
CONTINUOUS
 10
12.9558596372
 20
23.3687103504
 11
12.7991553188
 21
23.4549935366
  0
LINE
  5
2C3
100
AcDbEntity
  8
0
100
AcDbLine
 62
2
  6
CONTINUOUS
 10
12.5516167886
 20
23.0848168441
 11
12.6449869037
 21
23.0332069594
  0
LINE
  5
2C4
100
AcDbEntity
  8
0
100
AcDbLine
 62
2
  6
CONTINUOUS
 10
14.6705317033
 20
23.398225481
 11
14.5410803098
 21
23.470908819
  0
LINE
  5
2C5
100
AcDbEntity
  8
0
100
AcDbLine
 62
2
  6
CONTINUOUS
 10
14.8474397413
 20
23.2907317378
 11
14.6705317033
 21
23.398225481
  0
LINE
  5
2C6
100
AcDbEntity
  8
0
100
AcDbLine
 62
2
  6
CONTINUOUS
 10
17.1959516724
 20
22.0083263087
 11
17.3413183483
 21
21.9129410713
  0
LINE
  5
2C7
100
AcDbEntity
  8
0
100
AcDbLine
 62
2
  6
CONTINUOUS
 10
17.6479137539
 20
22.2036211947
 11
17.4889206156
 21
22.3262593569
  0
LINE
  5
2C8
100
AcDbEntity
  8
0
100
AcDbLine
 62
2
  6
CONTINUOUS
 10
16.2602767872
 20
23.1029943322
 11
16.4101944886
 21
22.9871427869
  0
LINE
  5
2C9
100
AcDbEntity
  8
0
100
AcDbLine
 62
2
  6
CONTINUOUS
 10
16.8121751316
 20
22.1605062158
 11
16.5146285487
 21
22.3966804892
  0
LINE
  5
2CA
100
AcDbEntity
  8
0
100
AcDbLine
 62
2
  6
CONTINUOUS
 10
16.8303792338
 20
23.1802020815
 11
16.6486575819
 21
23.3618971192
  0
LINE
  5
2CB
100
AcDbEntity
  8
0
100
AcDbLine
 62
2
  6
CONTINUOUS
 10
18.0555898324
 20
22.9996514537
 11
18.1475684541
 21
22.907672832
  0
LINE
  5
2CC
100
AcDbEntity
  8
0
100
AcDbLine
 62
2
  6
CONTINUOUS
 10
18.4723147336
 20
23.166575619
 11
18.3065083641
 21
23.3459818368
  0
LINE
  5
2CD
100
AcDbEntity
  8
0
100
AcDbLine
 62
2
  6
CONTINUOUS
 10
13.8733836486
 20
21.8629596328
 11
14.0232747358
 21
21.8266578851
  0
LINE
  5
2CE
100
AcDbEntity
  8
0
100
AcDbLine
 62
2
  6
CONTINUOUS
 10
15.7242937252
 20
21.9038390202
 11
15.9014377374
 21
21.8379955277
  0
LINE
  5
2CF
100
AcDbEntity
  8
0
100
AcDbLine
 62
2
  6
CONTINUOUS
 10
14.3048794222
 20
23.1256962316
 11
14.4207043532
 21
23.0780036129
  0
LINE
  5
2D0
100
AcDbEntity
  8
0
100
AcDbLine
 62
2
  6
CONTINUOUS
 10
17.3413183483
 20
21.9129410713
 11
17.5025470781
 21
21.844808759
  0
LINE
  5
2D1
100
AcDbEntity
  8
0
100
AcDbLine
 62
2
  6
CONTINUOUS
 10
17.9249674148
 20
23.0802658186
 11
18.0555898324
 21
22.9996514537
  0
LINE
  5
2D2
100
AcDbEntity
  8
0
100
AcDbLine
 62
2
  6
CONTINUOUS
 10
16.6486575819
 20
23.3618971192
 11
16.4805623925
 21
23.4799842559
  0
LINE
  5
2D3
100
AcDbEntity
  8
0
100
AcDbLine
 62
2
  6
CONTINUOUS
 10
18.4791279649
 20
22.1763682697
 11
18.1475684541
 21
22.4239334141
  0
LINE
  5
2D4
100
AcDbEntity
  8
0
100
AcDbLine
 62
2
  6
CONTINUOUS
 10
11.7385534515
 20
21.7903029091
 11
12.8195950125
 21
21.7903029091
  0
LINE
  5
2D5
100
AcDbEntity
  8
0
100
AcDbLine
 62
2
  6
CONTINUOUS
 10
20.4391029697
 20
21.7903029091
 11
20.8841985916
 21
21.7903029091
  0
LINE
  5
2D6
100
AcDbEntity
  8
0
100
AcDbLine
 62
2
  6
CONTINUOUS
 10
18.6648079375
 20
21.794239917
 11
19.120212333
 21
21.794239917
  0
LINE
  5
2D7
100
AcDbEntity
  8
0
100
AcDbLine
 62
2
  6
CONTINUOUS
 10
19.7072110039
 20
21.794239917
 11
20.14672143
 21
21.794239917
  0
LINE
  5
2D8
100
AcDbEntity
  8
0
100
AcDbLine
 62
2
  6
CONTINUOUS
 10
17.657015805
 20
21.8152670142
 11
17.7978048412
 21
21.8152670142
  0
LINE
  5
2D9
100
AcDbEntity
  8
0
100
AcDbLine
 62
2
  6
CONTINUOUS
 10
14.0232747358
 20
21.8266578851
 11
14.4161533277
 21
21.8266578851
  0
LINE
  5
2DA
100
AcDbEntity
  8
0
100
AcDbLine
 62
2
  6
CONTINUOUS
 10
16.1512650875
 20
22.2013856032
 11
16.0354401564
 21
22.2127232458
  0
LINE
  5
2DB
100
AcDbEntity
  8
0
100
AcDbLine
 62
2
  6
CONTINUOUS
 10
14.2367471098
 20
22.1877591407
 11
14.0914070482
 21
22.2036211947
  0
LINE
  5
2DC
100
AcDbEntity
  8
0
100
AcDbLine
 62
2
  6
CONTINUOUS
 10
15.9014377374
 20
21.8379955277
 11
16.1467140619
 21
21.8084537829
  0
LINE
  5
2DD
100
AcDbEntity
  8
0
100
AcDbLine
 62
2
  6
CONTINUOUS
 10
17.78870279
 20
22.1809459095
 11
17.6479137539
 21
22.2036211947
  0
LINE
  5
2DE
100
AcDbEntity
  8
0
100
AcDbLine
 62
2
  6
CONTINUOUS
 10
17.5025470781
 20
21.844808759
 11
17.657015805
 21
21.8152670142
  0
LINE
  5
2DF
100
AcDbEntity
  8
0
100
AcDbLine
 62
2
  6
CONTINUOUS
 10
16.1262743682
 20
23.1325094628
 11
16.2602767872
 21
23.1029943322
  0
LINE
  5
2E0
100
AcDbEntity
  8
0
100
AcDbLine
 62
2
  6
CONTINUOUS
 10
17.7830530111
 20
23.1257077022
 11
17.9249674148
 21
23.0802658186
  0
LINE
  5
2E1
100
AcDbEntity
  8
0
100
AcDbLine
 62
2
  6
CONTINUOUS
 10
14.5410803098
 20
23.470908819
 11
14.3593852721
 21
23.5344901058
  0
LINE
  5
2E2
100
AcDbEntity
  8
0
100
AcDbLine
 62
2
  6
CONTINUOUS
 10
18.1611949166
 20
23.4368426628
 11
18.0203526521
 21
23.4936107184
  0
LINE
  5
2E3
100
AcDbEntity
  8
0
100
AcDbLine
 62
2
  6
CONTINUOUS
 10
18.3065083641
 20
23.3459818368
 11
18.1611949166
 21
23.4368426628
  0
LINE
  5
2E4
100
AcDbEntity
  8
0
100
AcDbLine
 62
2
  6
CONTINUOUS
 10
17.9340694659
 20
21.8402843476
 11
18.1725325592
 21
21.8925013776
  0
LINE
  5
2E5
100
AcDbEntity
  8
0
100
AcDbLine
 62
2
  6
CONTINUOUS
 10
17.9636112107
 20
22.2150120656
 11
17.78870279
 21
22.1809459095
  0
LINE
  5
2E6
100
AcDbEntity
  8
0
100
AcDbLine
 62
2
  6
CONTINUOUS
 10
17.7978048412
 20
21.8152670142
 11
17.9340694659
 21
21.8402843476
  0
LINE
  5
2E7
100
AcDbEntity
  8
0
100
AcDbLine
 62
2
  6
CONTINUOUS
 10
14.3798249658
 20
22.2081988344
 11
14.2367471098
 21
22.1877591407
  0
LINE
  5
2E8
100
AcDbEntity
  8
0
100
AcDbLine
 62
2
  6
CONTINUOUS
 10
16.271641044
 20
22.2172476571
 11
16.1512650875
 21
22.2013856032
  0
LINE
  5
2E9
100
AcDbEntity
  8
0
100
AcDbLine
 62
2
  6
CONTINUOUS
 10
16.1467140619
 20
21.8084537829
 11
16.3761283325
 21
21.8311822965
  0
LINE
  5
2EA
100
AcDbEntity
  8
0
100
AcDbLine
 62
2
  6
CONTINUOUS
 10
12.1837023018
 20
22.4761504442
 11
12.6129358697
 21
22.4829636754
  0
LINE
  5
2EB
100
AcDbEntity
  8
0
100
AcDbLine
 62
2
  6
CONTINUOUS
 10
12.5697676624
 20
22.1423021135
 11
12.1837023018
 21
22.1423021135
  0
LINE
  5
2EC
100
AcDbEntity
  8
0
100
AcDbLine
 62
2
  6
CONTINUOUS
 10
19.120212333
 20
22.4119551397
 11
19.7072110039
 21
22.4119551397
  0
LINE
  5
2ED
100
AcDbEntity
  8
0
100
AcDbLine
 62
2
  6
CONTINUOUS
 10
12.5584300198
 20
22.7918479009
 11
12.1882267131
 21
22.7918479009
  0
LINE
  5
2EE
100
AcDbEntity
  8
0
100
AcDbLine
 62
2
  6
CONTINUOUS
 10
19.6611706435
 20
22.851480826
 11
19.136074387
 21
22.851480826
  0
LINE
  5
2EF
100
AcDbEntity
  8
0
100
AcDbLine
 62
2
  6
CONTINUOUS
 10
20.14672143
 20
23.4374414201
 11
19.6584307074
 21
23.4374414201
  0
LINE
  5
2F0
100
AcDbEntity
  8
0
100
AcDbLine
 62
2
  6
CONTINUOUS
 10
19.136074387
 20
23.4624207855
 11
18.6738142493
 21
23.4624207855
  0
LINE
  5
2F1
100
AcDbEntity
  8
0
100
AcDbLine
 62
2
  6
CONTINUOUS
 10
20.8864874198
 20
23.4437417461
 11
20.4300015092
 21
23.448072732
  0
LINE
  5
2F2
100
AcDbEntity
  8
0
100
AcDbLine
 62
2
  6
CONTINUOUS
 10
12.1837023018
 20
23.0916300754
 11
12.5516167886
 21
23.0848168441
  0
LINE
  5
2F3
100
AcDbEntity
  8
0
100
AcDbLine
 62
2
  6
CONTINUOUS
 10
18.0203526521
 20
23.4936107184
 11
17.8500218712
 21
23.5208636433
  0
LINE
  5
2F4
100
AcDbEntity
  8
0
100
AcDbLine
 62
2
  6
CONTINUOUS
 10
16.4805623925
 20
23.4799842559
 11
16.2466503248
 21
23.523125849
  0
LINE
  5
2F5
100
AcDbEntity
  8
0
100
AcDbLine
 62
2
  6
CONTINUOUS
 10
15.9900097434
 20
23.0938922811
 11
16.1262743682
 21
23.1325094628
  0
LINE
  5
2F6
100
AcDbEntity
  8
0
100
AcDbLine
 62
2
  6
CONTINUOUS
 10
14.4161533277
 20
21.8266578851
 11
14.6341767273
 21
21.8856881464
  0
LINE
  5
2F7
100
AcDbEntity
  8
0
100
AcDbLine
 62
2
  6
CONTINUOUS
 10
17.596652509
 20
23.0804976372
 11
17.7830530111
 21
23.1257077022
  0
LINE
  5
2F8
100
AcDbEntity
  8
0
100
AcDbLine
 62
2
  6
CONTINUOUS
 10
16.0286269252
 20
23.523125849
 11
15.8560339386
 21
23.4867974871
  0
LINE
  5
2F9
100
AcDbEntity
  8
0
100
AcDbLine
 62
2
  6
CONTINUOUS
 10
17.6978951925
 20
23.5208636433
 11
17.557052928
 21
23.5004239496
  0
LINE
  5
2FA
100
AcDbEntity
  8
0
100
AcDbLine
 62
2
  6
CONTINUOUS
 10
14.2140452104
 20
23.5344901058
 11
13.9165252417
 21
23.5117882064
  0
LINE
  5
2FB
100
AcDbEntity
  8
0
100
AcDbLine
 62
2
  6
CONTINUOUS
 10
14.1267438063
 20
23.1167711831
 11
14.3048794222
 21
23.1256962316
  0
LINE
  5
2FC
100
AcDbEntity
  8
0
100
AcDbLine
 62
2
  6
CONTINUOUS
 10
12.7991553188
 20
23.4549935366
 11
11.7385534515
 21
23.443655894
  0
LINE
  5
2FD
100
AcDbEntity
  8
0
100
AcDbLine
 62
2
  6
CONTINUOUS
 10
17.8500218712
 20
23.5208636433
 11
17.6978951925
 21
23.5208636433
  0
LINE
  5
2FE
100
AcDbEntity
  8
0
100
AcDbLine
 62
2
  6
CONTINUOUS
 10
16.2466503248
 20
23.523125849
 11
16.0286269252
 21
23.523125849
  0
LINE
  5
2FF
100
AcDbEntity
  8
0
100
AcDbLine
 62
2
  6
CONTINUOUS
 10
14.3593852721
 20
23.5344901058
 11
14.2140452104
 21
23.5344901058
  0
LINE
  5
300
100
AcDbEntity
  8
03___PRT_ALL_CURVES
100
AcDbLine
 62
2
  6
CONTINUOUS
 10
3.0321320931
 20
27.0853673715
 11
40.4947305183
 21
27.0853673715
  0
LINE
  5
301
100
AcDbEntity
  8
03___PRT_ALL_CURVES
100
AcDbLine
 62
2
  6
CONTINUOUS
 10
3.0321320931
 20
27.1066665841
 11
40.4947305183
 21
27.1066665841
  0
LINE
  5
302
100
AcDbEntity
  8
03___PRT_ALL_CURVES
100
AcDbLine
 62
2
  6
CONTINUOUS
 10
40.8884313057
 20
26.6916665841
 11
40.8884313057
 21
8.4790681589
  0
LINE
  5
303
100
AcDbEntity
  8
03___PRT_ALL_CURVES
100
AcDbLine
 62
2
  6
CONTINUOUS
 10
40.9097305183
 20
26.6916665841
 11
40.9097305183
 21
8.4790681589
  0
LINE
  5
304
100
AcDbEntity
  8
0
100
AcDbLine
 62
2
  6
CONTINUOUS
 10
11.6289317695
 20
12.1236484403
 11
11.6289317695
 21
11.9569817736
  0
LINE
  5
305
100
AcDbEntity
  8
0
100
AcDbLine
 62
7
  6
CONTINUOUS
 10
12.6593819679
 20
11.892280415
 11
12.6608865075
 21
11.8707644971
  0
LINE
  5
306
100
AcDbEntity
  8
DEFAULT_3
100
AcDbLine
 62
7
  6
PHANTOM
 10
12.605160175
 20
11.8938690308
 11
12.605160175
 21
11.9044883353
  0
LINE
  5
307
100
AcDbEntity
  8
0
100
AcDbLine
 62
2
  6
CONTINUOUS
 10
12.6289317695
 20
11.9569817736
 11
12.6289317695
 21
12.1236484403
  0
LINE
  5
308
100
AcDbEntity
  8
DEFAULT_3
100
AcDbLine
 62
7
  6
PHANTOM
 10
12.674863528
 20
11.8585565768
 11
12.674863528
 21
11.9044883353
  0
LINE
  5
309
100
AcDbEntity
  8
0
100
AcDbLine
 62
7
  6
CONTINUOUS
 10
12.5678206509
 20
11.9330226068
 11
12.5633149716
 21
11.881522456
  0
LINE
  5
30A
100
AcDbEntity
  8
0
100
AcDbLine
 62
7
  6
CONTINUOUS
 10
12.5830752046
 20
11.881522456
 11
12.5854751356
 21
11.8938690308
  0
LINE
  5
30B
100
AcDbEntity
  8
DEFAULT_3
100
AcDbLine
 62
7
  6
PHANTOM
 10
12.605160175
 20
11.8938690308
 11
12.602760244
 21
11.881522456
  0
LINE
  5
30C
100
AcDbEntity
  8
0
100
AcDbLine
 62
7
  6
CONTINUOUS
 10
12.9174527405
 20
11.938801388
 11
12.9175976447
 21
11.9360364502
  0
LINE
  5
30D
100
AcDbEntity
  8
DEFAULT_3
100
AcDbLine
 62
7
  6
PHANTOM
 10
12.7326368829
 20
11.9044883353
 11
12.7326368829
 21
11.892280415
  0
LINE
  5
30E
100
AcDbEntity
  8
DEFAULT_3
100
AcDbLine
 62
7
  6
PHANTOM
 10
12.7470420057
 20
11.8862940777
 11
12.7470420057
 21
11.8585565768
  0
LINE
  5
30F
100
AcDbEntity
  8
DEFAULT_3
100
AcDbLine
 62
7
  6
PHANTOM
 10
12.9209263446
 20
11.9387236151
 11
12.9209264754
 21
11.9359954861
  0
LINE
  5
310
100
AcDbEntity
  8
DEFAULT_3
100
AcDbLine
 62
7
  6
PHANTOM
 10
12.9740759509
 20
11.9377958852
 11
12.9740760817
 21
11.9350677563
  0
LINE
  5
311
100
AcDbEntity
  8
DEFAULT_3
100
AcDbLine
 62
7
  6
PHANTOM
 10
12.9209263446
 20
11.9387236151
 11
12.920942623
 21
11.9396562054
  0
LINE
  5
312
100
AcDbEntity
  8
DEFAULT_3
100
AcDbLine
 62
7
  6
PHANTOM
 10
12.9740922293
 20
11.9387284755
 11
12.9740759509
 21
11.9377958852
  0
LINE
  5
313
100
AcDbEntity
  8
0
100
AcDbLine
 62
7
  6
CONTINUOUS
 10
12.9775477568
 20
11.9377181123
 11
12.9774067107
 21
11.9350267923
  0
LINE
  5
314
100
AcDbEntity
  8
0
100
AcDbLine
 62
7
  6
CONTINUOUS
 10
12.7610190262
 20
11.8707644971
 11
12.7615317681
 21
11.8780970468
  0
LINE
  5
315
100
AcDbEntity
  8
0
100
AcDbLine
 62
7
  6
CONTINUOUS
 10
13.4149365214
 20
11.8785320753
 11
13.4154796833
 21
11.8707644971
  0
LINE
  5
316
100
AcDbEntity
  8
DEFAULT_3
100
AcDbLine
 62
7
  6
PHANTOM
 10
13.3533388238
 20
11.9445471987
 11
13.3533388238
 21
11.9569817736
  0
LINE
  5
317
100
AcDbEntity
  8
DEFAULT_3
100
AcDbLine
 62
7
  6
PHANTOM
 10
13.4294567039
 20
11.8585565768
 11
13.4294567039
 21
11.8782786245
  0
LINE
  5
318
100
AcDbEntity
  8
DEFAULT_3
100
AcDbLine
 62
7
  6
PHANTOM
 10
13.6656771763
 20
11.8741553808
 11
13.6656771763
 21
11.8585565768
  0
LINE
  5
319
100
AcDbEntity
  8
0
100
AcDbLine
 62
7
  6
CONTINUOUS
 10
13.6796541968
 20
11.8707644971
 11
13.6798739822
 21
11.8739075747
  0
LINE
  5
31A
100
AcDbEntity
  8
DEFAULT_3
100
AcDbLine
 62
7
  6
PHANTOM
 10
14.778087906
 20
11.9072396139
 11
14.7785459744
 21
11.9321086884
  0
LINE
  5
31B
100
AcDbEntity
  8
0
100
AcDbLine
 62
7
  6
CONTINUOUS
 10
16.5792692745
 20
10.5827286163
 11
16.7727039991
 21
10.6133656669
  0
LINE
  5
31C
100
AcDbEntity
  8
0
100
AcDbLine
 62
7
  6
CONTINUOUS
 10
16.5061539728
 20
10.6182978934
 11
16.545201719
 21
10.6244824488
  0
LINE
  5
31D
100
AcDbEntity
  8
0
100
AcDbLine
 62
7
  6
CONTINUOUS
 10
16.5592557793
 20
10.634992011
 11
16.6879182544
 21
10.6553701451
  0
LINE
  5
31E
100
AcDbEntity
  8
0
100
AcDbLine
 62
7
  6
CONTINUOUS
 10
16.7902561161
 20
10.6149475919
 11
18.6144785367
 21
10.6563449898
  0
LINE
  5
31F
100
AcDbEntity
  8
0
100
AcDbLine
 62
7
  6
CONTINUOUS
 10
16.7027593372
 20
10.6654689654
 11
18.6199170019
 21
10.708975359
  0
LINE
  5
320
100
AcDbEntity
  8
DEFAULT_3
100
AcDbLine
 62
7
  6
PHANTOM
 10
18.6193504027
 20
10.7732555417
 11
18.5066425126
 21
10.7709953123
  0
LINE
  5
321
100
AcDbEntity
  8
0
100
AcDbLine
 62
7
  6
CONTINUOUS
 10
16.0880871095
 20
10.5654005292
 11
16.5319811538
 21
10.5654005292
  0
LINE
  5
322
100
AcDbEntity
  8
0
100
AcDbLine
 62
7
  6
CONTINUOUS
 10
16.1190466549
 20
10.6178939676
 11
16.5010216085
 21
10.6178939676
  0
LINE
  5
323
100
AcDbEntity
  8
DEFAULT_3
100
AcDbLine
 62
7
  6
PHANTOM
 10
16.5164131054
 20
10.6244824488
 11
16.0748665444
 21
10.6244824488
  0
LINE
  5
324
100
AcDbEntity
  8
DEFAULT_3
100
AcDbLine
 62
7
  6
PHANTOM
 10
16.0730598767
 20
10.625402992
 11
16.5470083867
 21
10.625402992
  0
LINE
  5
325
100
AcDbEntity
  8
DEFAULT_3
100
AcDbLine
 62
7
  6
PHANTOM
 10
16.5538357762
 20
10.6322303815
 11
16.0662324872
 21
10.6322303815
  0
LINE
  5
326
100
AcDbEntity
  8
DEFAULT_3
100
AcDbLine
 62
7
  6
PHANTOM
 10
16.0608124841
 20
10.634992011
 11
16.5592557793
 21
10.634992011
  0
LINE
  5
327
100
AcDbEntity
  8
DEFAULT_3
100
AcDbLine
 62
7
  6
PHANTOM
 10
16.6416586482
 20
10.6553701451
 11
15.932150009
 21
10.6553701451
  0
LINE
  5
328
100
AcDbEntity
  8
DEFAULT_3
100
AcDbLine
 62
7
  6
PHANTOM
 10
15.9303433413
 20
10.6562906883
 11
16.6897249221
 21
10.6562906883
  0
LINE
  5
329
100
AcDbEntity
  8
DEFAULT_3
100
AcDbLine
 62
7
  6
PHANTOM
 10
15.9240453381
 20
10.6625886915
 11
16.6960229253
 21
10.6625886915
  0
LINE
  5
32A
100
AcDbEntity
  8
DEFAULT_3
100
AcDbLine
 62
7
  6
PHANTOM
 10
15.9173089262
 20
10.6654689654
 11
16.7027593372
 21
10.6654689654
  0
LINE
  5
32B
100
AcDbEntity
  8
0
100
AcDbLine
 62
7
  6
CONTINUOUS
 10
15.9173089262
 20
10.6654689654
 11
15.8951965181
 21
10.6659707661
  0
LINE
  5
32C
100
AcDbEntity
  8
0
100
AcDbLine
 62
7
  6
CONTINUOUS
 10
16.0407989888
 20
10.5827286163
 11
15.8857544989
 21
10.6072852511
  0
LINE
  5
32D
100
AcDbEntity
  8
0
100
AcDbLine
 62
7
  6
CONTINUOUS
 10
16.1139142905
 20
10.6182978934
 11
16.0748665444
 21
10.6244824488
  0
LINE
  5
32E
100
AcDbEntity
  8
0
100
AcDbLine
 62
7
  6
CONTINUOUS
 10
16.0608124841
 20
10.634992011
 11
15.932150009
 21
10.6553701451
  0
LINE
  5
32F
100
AcDbEntity
  8
0
100
AcDbLine
 62
7
  6
CONTINUOUS
 10
15.9303433413
 20
10.6562906883
 11
15.9240453381
 21
10.6625886915
  0
LINE
  5
330
100
AcDbEntity
  8
0
100
AcDbLine
 62
7
  6
CONTINUOUS
 10
16.0730598767
 20
10.625402992
 11
16.0662324872
 21
10.6322303815
  0
LINE
  5
331
100
AcDbEntity
  8
DEFAULT_3
100
AcDbLine
 62
7
  6
PHANTOM
 10
15.6079343942
 20
11.8972263884
 11
15.6079343942
 21
11.9176316597
  0
LINE
  5
332
100
AcDbEntity
  8
DEFAULT_3
100
AcDbLine
 62
7
  6
PHANTOM
 10
15.6568917363
 20
11.9569817736
 11
15.6568917363
 21
11.9321087016
  0
LINE
  5
333
100
AcDbEntity
  8
DEFAULT_3
100
AcDbLine
 62
7
  6
PHANTOM
 10
15.7356744465
 20
11.9339337249
 11
15.7356744465
 21
11.9569817736
  0
LINE
  5
334
100
AcDbEntity
  8
DEFAULT_3
100
AcDbLine
 62
7
  6
PHANTOM
 10
15.6077053646
 20
11.884791851
 11
15.6079343988
 21
11.8972263883
  0
LINE
  5
335
100
AcDbEntity
  8
DEFAULT_3
100
AcDbLine
 62
7
  6
PHANTOM
 10
15.6612890963
 20
11.8962950786
 11
15.6610600621
 21
11.8838605413
  0
LINE
  5
336
100
AcDbEntity
  8
DEFAULT_3
100
AcDbLine
 62
7
  6
PHANTOM
 10
15.8942170689
 20
10.7429405852
 11
15.7356744465
 21
11.9339337249
  0
LINE
  5
337
100
AcDbEntity
  8
0
100
AcDbLine
 62
7
  6
CONTINUOUS
 10
15.6547964785
 20
11.7862737909
 11
15.7870015987
 21
10.7095494928
  0
LINE
  5
338
100
AcDbEntity
  8
DEFAULT_3
100
AcDbLine
 62
7
  6
PHANTOM
 10
15.6612890963
 20
11.8962950786
 11
15.6568917363
 21
11.9321087016
  0
LINE
  5
339
100
AcDbEntity
  8
0
100
AcDbLine
 62
7
  6
CONTINUOUS
 10
15.6829428164
 20
11.9339337249
 11
15.8315562996
 21
10.7235740334
  0
LINE
  5
33A
100
AcDbEntity
  8
0
100
AcDbLine
 62
7
  6
CONTINUOUS
 10
12.6739778992
 20
11.8585565768
 11
12.7479276345
 21
11.8585565768
  0
LINE
  5
33B
100
AcDbEntity
  8
0
100
AcDbLine
 62
7
  6
CONTINUOUS
 10
13.4285710751
 20
11.8585565768
 11
13.6665628051
 21
11.8585565768
  0
LINE
  5
33C
100
AcDbEntity
  8
0
100
AcDbLine
 62
7
  6
CONTINUOUS
 10
18.8755213423
 20
11.8585565768
 11
18.9487150361
 21
11.8585565768
  0
LINE
  5
33D
100
AcDbEntity
  8
DEFAULT_3
100
AcDbLine
 62
7
  6
PHANTOM
 10
18.9618064278
 20
11.8707644971
 11
18.8785192305
 21
11.8707644971
  0
LINE
  5
33E
100
AcDbEntity
  8
DEFAULT_3
100
AcDbLine
 62
7
  6
PHANTOM
 10
13.6796541968
 20
11.8707644971
 11
13.4154796833
 21
11.8707644971
  0
LINE
  5
33F
100
AcDbEntity
  8
DEFAULT_3
100
AcDbLine
 62
7
  6
PHANTOM
 10
12.7610190262
 20
11.8707644971
 11
12.6608865075
 21
11.8707644971
  0
LINE
  5
340
100
AcDbEntity
  8
0
100
AcDbLine
 62
7
  6
CONTINUOUS
 10
13.243617721
 20
11.881522456
 11
12.7615317681
 21
11.881522456
  0
LINE
  5
341
100
AcDbEntity
  8
0
100
AcDbLine
 62
7
  6
CONTINUOUS
 10
12.5633149716
 20
11.881522456
 11
12.6601342377
 21
11.881522456
  0
LINE
  5
342
100
AcDbEntity
  8
0
100
AcDbLine
 62
7
  6
CONTINUOUS
 10
18.9622518941
 20
11.881522456
 11
19.0593779637
 21
11.881522456
  0
LINE
  5
343
100
AcDbEntity
  8
DEFAULT_3
100
AcDbLine
 62
7
  6
PHANTOM
 10
12.6593819679
 20
11.892280415
 11
12.732636881
 21
11.892280415
  0
LINE
  5
344
100
AcDbEntity
  8
DEFAULT_3
100
AcDbLine
 62
7
  6
PHANTOM
 10
18.8927716159
 20
11.892280415
 11
18.9633109673
 21
11.892280415
  0
LINE
  5
345
100
AcDbEntity
  8
DEFAULT_3
100
AcDbLine
 62
7
  6
PHANTOM
 10
12.605160175
 20
11.8938690308
 11
12.6593819679
 21
11.8938690308
  0
LINE
  5
346
100
AcDbEntity
  8
0
100
AcDbLine
 62
7
  6
CONTINUOUS
 10
12.5983573821
 20
11.9044883353
 11
12.7326368829
 21
11.9044883353
  0
LINE
  5
347
100
AcDbEntity
  8
0
100
AcDbLine
 62
7
  6
CONTINUOUS
 10
18.8927716209
 20
11.9044883353
 11
19.0243355532
 21
11.9044883353
  0
LINE
  5
348
100
AcDbEntity
  8
DEFAULT_3
100
AcDbLine
 62
7
  6
PHANTOM
 10
14.7785459743
 20
11.932108695
 11
15.6568917363
 21
11.9321087016
  0
LINE
  5
349
100
AcDbEntity
  8
DEFAULT_3
100
AcDbLine
 62
7
  6
PHANTOM
 10
15.7356744465
 20
11.9339337249
 11
18.7741517545
 21
11.9339337249
  0
LINE
  5
34A
100
AcDbEntity
  8
DEFAULT_3
100
AcDbLine
 62
7
  6
PHANTOM
 10
13.3533388166
 20
11.9445469413
 11
12.8454328732
 21
11.9489787381
  0
LINE
  5
34B
100
AcDbEntity
  8
0
100
AcDbLine
 62
7
  6
CONTINUOUS
 10
15.6036104551
 20
11.8323618934
 11
15.532749207
 21
11.8335987811
  0
LINE
  5
34C
100
AcDbEntity
  8
0
100
AcDbLine
 62
7
  6
CONTINUOUS
 10
14.1862647054
 20
11.8650684917
 11
12.7853056919
 21
11.8895223223
  0
LINE
  5
34D
100
AcDbEntity
  8
0
100
AcDbLine
 62
7
  6
CONTINUOUS
 10
15.6663387857
 20
11.8837684008
 11
15.581687675
 21
11.8852459915
  0
LINE
  5
34E
100
AcDbEntity
  8
0
100
AcDbLine
 62
7
  6
CONTINUOUS
 10
12.97640663
 20
11.934094202
 11
12.9185633703
 21
11.9351038599
  0
LINE
  5
34F
100
AcDbEntity
  8
0
100
AcDbLine
 62
7
  6
CONTINUOUS
 10
15.5768131176
 20
11.8893144683
 11
15.5842684982
 21
11.8891843484
  0
LINE
  5
350
100
AcDbEntity
  8
DEFAULT_3
100
AcDbLine
 62
7
  6
PHANTOM
 10
12.9740760817
 20
11.9350677563
 11
12.9209264754
 21
11.9359954861
  0
LINE
  5
351
100
AcDbEntity
  8
DEFAULT_3
100
AcDbLine
 62
7
  6
PHANTOM
 10
12.9209263446
 20
11.9387236151
 11
12.9740759509
 21
11.9377958852
  0
LINE
  5
352
100
AcDbEntity
  8
0
100
AcDbLine
 62
7
  6
CONTINUOUS
 10
12.805820861
 20
11.9416656632
 11
15.5749516771
 21
11.893330305
  0
LINE
  5
353
100
AcDbEntity
  8
DEFAULT_3
100
AcDbLine
 62
7
  6
PHANTOM
 10
15.6079343942
 20
11.8972263884
 11
15.6612890963
 21
11.8962950786
  0
LINE
  5
354
100
AcDbEntity
  8
DEFAULT_3
100
AcDbLine
 62
7
  6
PHANTOM
 10
14.7785459743
 20
11.932108695
 11
15.6079343942
 21
11.9176316597
  0
LINE
  5
355
100
AcDbEntity
  8
DEFAULT_3
100
AcDbLine
 62
7
  6
PHANTOM
 10
15.57681315
 20
11.8893144357
 11
15.5684669602
 21
11.889498156
  0
LINE
  5
356
100
AcDbEntity
  8
0
100
AcDbLine
 62
7
  6
CONTINUOUS
 10
14.1862647054
 20
11.8650684917
 11
15.5252862391
 21
11.8340452097
  0
LINE
  5
357
100
AcDbEntity
  8
0
100
AcDbLine
 62
7
  6
CONTINUOUS
 10
14.1873307196
 20
11.9175513189
 11
15.581687675
 21
11.8852459915
  0
LINE
  5
358
100
AcDbEntity
  8
0
100
AcDbLine
 62
2
  6
CONTINUOUS
 10
11.6289317695
 20
11.9569817736
 11
12.5939674934
 21
11.9569817736
  0
LINE
  5
359
100
AcDbEntity
  8
0
100
AcDbLine
 62
7
  6
CONTINUOUS
 10
12.5939674934
 20
11.9569817736
 11
19.0287254419
 21
11.9569817736
  0
LINE
  5
35A
100
AcDbEntity
  8
0
100
AcDbLine
 62
2
  6
CONTINUOUS
 10
19.0287254419
 20
11.9569817736
 11
19.9937611658
 21
11.9569817736
  0
LINE
  5
35B
100
AcDbEntity
  8
0
100
AcDbLine
 62
2
  6
CONTINUOUS
 10
19.9937611658
 20
12.1236484403
 11
18.9937611658
 21
12.1236484403
  0
LINE
  5
35C
100
AcDbEntity
  8
0
100
AcDbLine
 62
2
  6
CONTINUOUS
 10
12.6289317695
 20
12.1236484403
 11
11.6289317695
 21
12.1236484403
  0
LINE
  5
35D
100
AcDbEntity
  8
0
100
AcDbLine
 62
7
  6
CONTINUOUS
 10
16.5470083867
 20
10.625402992
 11
16.5538357762
 21
10.6322303815
  0
LINE
  5
35E
100
AcDbEntity
  8
0
100
AcDbLine
 62
7
  6
CONTINUOUS
 10
16.6897249221
 20
10.6562906883
 11
16.6960229253
 21
10.6625886915
  0
LINE
  5
35F
100
AcDbEntity
  8
DEFAULT_3
100
AcDbLine
 62
7
  6
PHANTOM
 10
18.6193504027
 20
10.7732555417
 11
18.7741517545
 21
11.9339337249
  0
LINE
  5
360
100
AcDbEntity
  8
DEFAULT_3
100
AcDbLine
 62
7
  6
PHANTOM
 10
18.774151756
 20
11.9569817736
 11
18.774151756
 21
11.9339337249
  0
LINE
  5
361
100
AcDbEntity
  8
DEFAULT_3
100
AcDbLine
 62
7
  6
PHANTOM
 10
18.8927716209
 20
11.892280415
 11
18.8927716209
 21
11.9044883353
  0
LINE
  5
362
100
AcDbEntity
  8
DEFAULT_3
100
AcDbLine
 62
7
  6
PHANTOM
 10
18.9478294073
 20
11.9044883353
 11
18.9478294073
 21
11.8585565768
  0
LINE
  5
363
100
AcDbEntity
  8
0
100
AcDbLine
 62
7
  6
CONTINUOUS
 10
18.9618064278
 20
11.8707644971
 11
18.9633109673
 21
11.892280415
  0
LINE
  5
364
100
AcDbEntity
  8
0
100
AcDbLine
 62
7
  6
CONTINUOUS
 10
18.8268892265
 20
11.9339337249
 11
18.6835560337
 21
10.766578548
  0
LINE
  5
365
100
AcDbEntity
  8
0
100
AcDbLine
 62
7
  6
CONTINUOUS
 10
18.8667205408
 20
11.8814402866
 11
18.7290287968
 21
10.7600310235
  0
LINE
  5
366
100
AcDbEntity
  8
DEFAULT_3
100
AcDbLine
 62
7
  6
PHANTOM
 10
18.8785192305
 20
11.8707644971
 11
18.879746081
 21
11.880756392
  0
LINE
  5
367
100
AcDbEntity
  8
0
100
AcDbLine
 62
7
  6
CONTINUOUS
 10
18.728314943
 20
10.7551934219
 11
18.7290287968
 21
10.7600310235
  0
LINE
  5
368
100
AcDbEntity
  8
0
100
AcDbLine
 62
7
  6
CONTINUOUS
 10
19.0548722843
 20
11.9330226068
 11
19.0593779637
 21
11.881522456
  0
LINE
  5
369
100
AcDbEntity
  8
0
100
AcDbLine
 62
2
  6
CONTINUOUS
 10
18.9937611658
 20
12.1236484403
 11
18.9937611658
 21
11.9569817736
  0
LINE
  5
36A
100
AcDbEntity
  8
0
100
AcDbLine
 62
7
  6
CONTINUOUS
 10
19.0396177307
 20
11.881522456
 11
19.0372177997
 21
11.8938690308
  0
LINE
  5
36B
100
AcDbEntity
  8
0
100
AcDbLine
 62
2
  6
CONTINUOUS
 10
19.9937611658
 20
11.9569817736
 11
19.9937611658
 21
12.1236484403
  0
ARC
  5
36C
100
AcDbEntity
  8
03___PRT_ALL_CURVES
100
AcDbCircle
 62
2
  6
CONTINUOUS
 10
3.0321320931
 20
26.6916665841
 40
0.415
100
AcDbArc
 50
90.0
 51
180.0
  0
ARC
  5
36D
100
AcDbEntity
  8
03___PRT_ALL_CURVES
100
AcDbCircle
 62
2
  6
CONTINUOUS
 10
3.0321320931
 20
8.4790681589
 40
0.415
100
AcDbArc
 50
180.0
 51
270.0
  0
ARC
  5
36E
100
AcDbEntity
  8
03___PRT_ALL_CURVES
100
AcDbCircle
 62
2
  6
CONTINUOUS
 10
40.4947305183
 20
8.4790681589
 40
0.415
100
AcDbArc
 50
270.0
 51
360.0
  0
ARC
  5
36F
100
AcDbEntity
  8
03___PRT_ALL_CURVES
100
AcDbCircle
 62
2
  6
CONTINUOUS
 10
40.4947305183
 20
26.6916665841
 40
0.415
100
AcDbArc
 50
0.0
 51
90.0
  0
ARC
  5
370
100
AcDbEntity
  8
03___PRT_ALL_CURVES
100
AcDbCircle
 62
2
  6
CONTINUOUS
 10
3.0321320931
 20
26.6916665841
 40
0.3937007874
100
AcDbArc
 50
90.0
 51
180.0
  0
ARC
  5
371
100
AcDbEntity
  8
03___PRT_ALL_CURVES
100
AcDbCircle
 62
2
  6
CONTINUOUS
 10
3.0321320931
 20
8.4790681589
 40
0.3937007874
100
AcDbArc
 50
180.0
 51
270.0
  0
ARC
  5
372
100
AcDbEntity
  8
03___PRT_ALL_CURVES
100
AcDbCircle
 62
2
  6
CONTINUOUS
 10
40.4947305183
 20
8.4790681589
 40
0.3937007874
100
AcDbArc
 50
270.0
 51
360.0
  0
ARC
  5
373
100
AcDbEntity
  8
03___PRT_ALL_CURVES
100
AcDbCircle
 62
2
  6
CONTINUOUS
 10
40.4947305183
 20
26.6916665841
 40
0.3937007874
100
AcDbArc
 50
0.0
 51
90.0
  0
ARC
  5
374
100
AcDbEntity
  8
0
100
AcDbCircle
 62
2
  6
CONTINUOUS
 10
3.0321320931
 20
26.6916665841
 40
0.3937007874
100
AcDbArc
 50
107.8154241585
 51
152.9568752157
  0
ARC
  5
375
100
AcDbEntity
  8
0
100
AcDbCircle
 62
7
  6
CONTINUOUS
 10
15.6026943183
 20
11.7798764501
 40
0.0524934383
100
AcDbArc
 50
7.0
 51
89.0
  0
ARC
  5
376
100
AcDbEntity
  8
0
100
AcDbCircle
 62
7
  6
CONTINUOUS
 10
15.6658807173
 20
11.8575256792
 40
0.0262467192
100
AcDbArc
 50
7.0
 51
89.0
  0
ARC
  5
377
100
AcDbEntity
  8
0
100
AcDbCircle
 62
7
  6
CONTINUOUS
 10
15.5246783019
 20
11.8078055321
 40
0.0262467192
100
AcDbArc
 50
84.2421965568
 51
88.6727732601
  0
ARC
  5
378
100
AcDbEntity
  8
DEFAULT_3
100
AcDbCircle
 62
7
  6
PHANTOM
 10
15.6620422114
 20
11.8733917757
 40
0.0228778706
100
AcDbArc
 50
62.4836791542
 51
66.0729312237
  0
ARC
  5
379
100
AcDbEntity
  8
0
100
AcDbCircle
 62
7
  6
CONTINUOUS
 10
13.6665628051
 20
11.8716799364
 40
0.0131233596
100
AcDbArc
 50
270.0000000079
 51
355.9999999992
  0
ARC
  5
37A
100
AcDbEntity
  8
0
100
AcDbCircle
 62
7
  6
CONTINUOUS
 10
13.4285710751
 20
11.8716799364
 40
0.0131233596
100
AcDbArc
 50
184.0000000008
 51
269.9999999921
  0
ARC
  5
37B
100
AcDbEntity
  8
0
100
AcDbCircle
 62
7
  6
CONTINUOUS
 10
12.6739778992
 20
11.8716799364
 40
0.0131233596
100
AcDbArc
 50
183.9999999995
 51
269.9999999921
  0
ARC
  5
37C
100
AcDbEntity
  8
0
100
AcDbCircle
 62
7
  6
CONTINUOUS
 10
12.7479276345
 20
11.8716799364
 40
0.0131233596
100
AcDbArc
 50
270.0000000079
 51
355.9999999992
  0
ARC
  5
37D
100
AcDbEntity
  8
DEFAULT_3
100
AcDbCircle
 62
7
  6
PHANTOM
 10
13.641529615
 20
13.2523607972
 40
2.3766046423
100
AcDbArc
 50
325.2425715696
 51
325.8326642441
  0
ARC
  5
37E
100
AcDbEntity
  8
DEFAULT_3
100
AcDbCircle
 62
7
  6
PHANTOM
 10
14.7284067746
 20
13.2642869466
 40
1.6084306934
100
AcDbArc
 50
302.2748852545
 51
303.1493600566
  0
ARC
  5
37F
100
AcDbEntity
  8
DEFAULT_3
100
AcDbCircle
 62
7
  6
PHANTOM
 10
15.752429123
 20
12.9603665013
 40
1.0679674619
100
AcDbArc
 50
265.104440558
 51
265.2954688308
  0
ARC
  5
380
100
AcDbEntity
  8
DEFAULT_3
100
AcDbCircle
 62
7
  6
PHANTOM
 10
15.6148118671
 20
12.7495905221
 40
0.852392006
100
AcDbArc
 50
268.6066015518
 51
269.5377074023
  0
ARC
  5
381
100
AcDbEntity
  8
DEFAULT_3
100
AcDbCircle
 62
7
  6
PHANTOM
 10
12.7867042408
 20
11.9692111939
 40
0.091914873
100
AcDbArc
 50
239.0201194589
 51
244.4365352713
  0
ARC
  5
382
100
AcDbEntity
  8
0
100
AcDbCircle
 62
7
  6
CONTINUOUS
 10
12.7866798971
 20
11.9682504872
 40
0.0787401575
100
AcDbArc
 50
239.0186049163
 51
269.0
  0
ARC
  5
383
100
AcDbEntity
  8
0
100
AcDbCircle
 62
7
  6
CONTINUOUS
 10
15.533894378
 20
11.8992055852
 40
0.0656167979
100
AcDbArc
 50
264.2421965568
 51
269.0
  0
ARC
  5
384
100
AcDbEntity
  8
0
100
AcDbCircle
 62
7
  6
CONTINUOUS
 10
12.5939674934
 20
11.9307350545
 40
0.0262467192
100
AcDbArc
 50
90.0
 51
175.0
  0
ARC
  5
385
100
AcDbEntity
  8
0
100
AcDbCircle
 62
7
  6
CONTINUOUS
 10
15.6568917363
 20
11.9307350545
 40
0.0262467192
100
AcDbArc
 50
7.0000000001
 51
90.0
  0
ARC
  5
386
100
AcDbEntity
  8
0
100
AcDbCircle
 62
7
  6
CONTINUOUS
 10
12.8062789294
 20
11.9679083849
 40
0.0262467192
100
AcDbArc
 50
225.0847506526
 51
269.0
  0
ARC
  5
387
100
AcDbEntity
  8
0
100
AcDbCircle
 62
7
  6
CONTINUOUS
 10
12.7692154086
 20
11.9307350545
 40
0.0262467192
100
AcDbArc
 50
45.0847506526
 51
90.0
  0
ARC
  5
388
100
AcDbEntity
  8
0
100
AcDbCircle
 62
7
  6
CONTINUOUS
 10
12.7326368829
 20
11.8782416161
 40
0.0262467192
100
AcDbArc
 50
59.0186049163
 51
90.0
  0
ARC
  5
389
100
AcDbEntity
  8
0
100
AcDbCircle
 62
7
  6
CONTINUOUS
 10
15.5746937873
 20
11.8802094479
 40
0.0131233596
100
AcDbArc
 50
43.1479528646
 51
88.9999999993
  0
ARC
  5
38A
100
AcDbEntity
  8
0
100
AcDbCircle
 62
7
  6
CONTINUOUS
 10
12.5983573821
 20
11.8913649757
 40
0.0131233596
100
AcDbArc
 50
90.0
 51
169.0
  0
ARC
  5
38B
100
AcDbEntity
  8
0
100
AcDbCircle
 62
7
  6
CONTINUOUS
 10
12.7746231598
 20
11.8771816075
 40
0.0131233596
100
AcDbArc
 50
105.9922777476
 51
176.0
  0
ARC
  5
38C
100
AcDbEntity
  8
0
100
AcDbCircle
 62
7
  6
CONTINUOUS
 10
12.6462905762
 20
11.8913649757
 40
0.0131233596
100
AcDbArc
 50
3.9999999993
 51
61.3333333354
  0
ARC
  5
38D
100
AcDbEntity
  8
0
100
AcDbCircle
 62
7
  6
CONTINUOUS
 10
12.9164698374
 20
11.9387498762
 40
0.000984252
100
AcDbArc
 50
3.0000000001
 51
89.0
  0
ARC
  5
38E
100
AcDbEntity
  8
0
100
AcDbCircle
 62
7
  6
CONTINUOUS
 10
12.9785306599
 20
11.9376666006
 40
0.000984252
100
AcDbArc
 50
89.0
 51
176.9999999999
  0
ARC
  5
38F
100
AcDbEntity
  8
0
100
AcDbCircle
 62
7
  6
CONTINUOUS
 10
12.9185805478
 20
11.9360879619
 40
0.000984252
100
AcDbArc
 50
183.0000000001
 51
269.0
  0
ARC
  5
390
100
AcDbEntity
  8
0
100
AcDbCircle
 62
7
  6
CONTINUOUS
 10
12.9764238076
 20
11.9350783041
 40
0.000984252
100
AcDbArc
 50
269.0
 51
356.9999999999
  0
ARC
  5
391
100
AcDbEntity
  8
0
100
AcDbCircle
 62
7
  6
CONTINUOUS
 10
16.7932334564
 20
10.4837477744
 40
0.1312335958
100
AcDbArc
 50
91.2999999999
 51
98.9999999997
  0
ARC
  5
392
100
AcDbEntity
  8
0
100
AcDbCircle
 62
7
  6
CONTINUOUS
 10
15.9042308504
 20
10.7239438252
 40
0.1181096705
100
AcDbArc
 50
187.0001878878
 51
261.0002642222
  0
ARC
  5
393
100
AcDbEntity
  8
DEFAULT_3
100
AcDbCircle
 62
7
  6
PHANTOM
 10
15.8943391472
 20
10.7509907649
 40
0.0656561502
100
AcDbArc
 50
187.0417001396
 51
269.5448425893
  0
ARC
  5
394
100
AcDbEntity
  8
0
100
AcDbCircle
 62
7
  6
CONTINUOUS
 10
15.8966840002
 20
10.7315707092
 40
0.0656167982
100
AcDbArc
 50
186.999999756
 51
268.7010378999
  0
ARC
  5
395
100
AcDbEntity
  8
0
100
AcDbCircle
 62
7
  6
CONTINUOUS
 10
18.6184283336
 20
10.7745752243
 40
0.0656167978
100
AcDbArc
 50
271.3000182716
 51
352.9999997953
  0
ARC
  5
396
100
AcDbEntity
  8
0
100
AcDbCircle
 62
7
  6
CONTINUOUS
 10
16.0336136788
 20
10.537362354
 40
0.0459317585
100
AcDbArc
 50
53.6310787579
 51
81.0000000003
  0
ARC
  5
397
100
AcDbEntity
  8
0
100
AcDbCircle
 62
7
  6
CONTINUOUS
 10
16.0880871095
 20
10.6113322878
 40
0.0459317585
100
AcDbArc
 50
233.6310787579
 51
270.0
  0
ARC
  5
398
100
AcDbEntity
  8
0
100
AcDbCircle
 62
7
  6
CONTINUOUS
 10
16.5319811538
 20
10.6113322878
 40
0.0459317585
100
AcDbArc
 50
270.0
 51
306.3689212421
  0
ARC
  5
399
100
AcDbEntity
  8
0
100
AcDbCircle
 62
7
  6
CONTINUOUS
 10
16.5864545846
 20
10.537362354
 40
0.0459317585
100
AcDbArc
 50
98.9999999997
 51
126.3689212421
  0
ARC
  5
39A
100
AcDbEntity
  8
0
100
AcDbCircle
 62
7
  6
CONTINUOUS
 10
16.5010216085
 20
10.6507023665
 40
0.032808399
100
AcDbArc
 50
270.0
 51
278.9999999997
  0
ARC
  5
39B
100
AcDbEntity
  8
0
100
AcDbCircle
 62
7
  6
CONTINUOUS
 10
16.1190466549
 20
10.6507023665
 40
0.032808399
100
AcDbArc
 50
261.0000000003
 51
270.0
  0
ARC
  5
39C
100
AcDbEntity
  8
0
100
AcDbCircle
 62
7
  6
CONTINUOUS
 10
18.9622518941
 20
11.8716799364
 40
0.032808399
100
AcDbArc
 50
17.4576031246
 51
73.5038967826
  0
ARC
  5
39D
100
AcDbEntity
  8
0
100
AcDbCircle
 62
7
  6
CONTINUOUS
 10
18.9487150361
 20
11.8716799364
 40
0.0131233596
100
AcDbArc
 50
270.0000000079
 51
355.9999999992
  0
ARC
  5
39E
100
AcDbEntity
  8
0
100
AcDbCircle
 62
7
  6
CONTINUOUS
 10
18.8755213423
 20
11.8454332172
 40
0.0131233596
100
AcDbArc
 50
90.0
 51
145.3849623304
  0
ARC
  5
39F
100
AcDbEntity
  8
0
100
AcDbCircle
 62
7
  6
CONTINUOUS
 10
15.9170856257
 20
10.6556289791
 40
0.0098425197
100
AcDbArc
 50
45.0
 51
88.7000000001
  0
ARC
  5
3A0
100
AcDbEntity
  8
0
100
AcDbCircle
 62
7
  6
CONTINUOUS
 10
16.7029826377
 20
10.6556289791
 40
0.0098425197
100
AcDbArc
 50
91.2999999999
 51
135.0
  0
ARC
  5
3A1
100
AcDbEntity
  8
0
100
AcDbCircle
 62
7
  6
CONTINUOUS
 10
16.0592727748
 20
10.6252706691
 40
0.0098425197
100
AcDbArc
 50
45.0
 51
81.0000000003
  0
ARC
  5
3A2
100
AcDbEntity
  8
0
100
AcDbCircle
 62
7
  6
CONTINUOUS
 10
16.5607954886
 20
10.6252706691
 40
0.0098425197
100
AcDbArc
 50
98.9999999997
 51
135.0
  0
ARC
  5
3A3
100
AcDbEntity
  8
0
100
AcDbCircle
 62
7
  6
CONTINUOUS
 10
16.687405018
 20
10.6586105924
 40
0.0032808399
100
AcDbArc
 50
278.9999999997
 51
315.0
  0
ARC
  5
3A4
100
AcDbEntity
  8
0
100
AcDbCircle
 62
7
  6
CONTINUOUS
 10
15.9326632454
 20
10.6586105924
 40
0.0032808399
100
AcDbArc
 50
225.0
 51
261.0000000003
  0
ARC
  5
3A5
100
AcDbEntity
  8
0
100
AcDbCircle
 62
7
  6
CONTINUOUS
 10
16.5446884825
 20
10.6277228961
 40
0.0032808399
100
AcDbArc
 50
278.9999999997
 51
315.0
  0
ARC
  5
3A6
100
AcDbEntity
  8
0
100
AcDbCircle
 62
7
  6
CONTINUOUS
 10
16.0753797808
 20
10.6277228961
 40
0.0032808399
100
AcDbArc
 50
225.0
 51
261.0000000003
  0
ARC
  5
3A7
100
AcDbEntity
  8
DEFAULT_3
100
AcDbCircle
 62
7
  6
PHANTOM
 10
18.9836979855
 20
11.8812661302
 40
0.0274951932
100
AcDbArc
 50
0.5341782665
 51
5.1176047882
  0
ARC
  5
3A8
100
AcDbEntity
  8
0
100
AcDbCircle
 62
7
  6
CONTINUOUS
 10
19.0287254419
 20
11.9307350545
 40
0.0262467192
100
AcDbArc
 50
5.0
 51
90.0
  0
ARC
  5
3A9
100
AcDbEntity
  8
0
100
AcDbCircle
 62
7
  6
CONTINUOUS
 10
18.8529403066
 20
11.9307350545
 40
0.0262467192
100
AcDbArc
 50
90.0
 51
173.0
  0
ARC
  5
3AA
100
AcDbEntity
  8
0
100
AcDbCircle
 62
7
  6
CONTINUOUS
 10
18.8927716209
 20
11.8782416161
 40
0.0262467192
100
AcDbArc
 50
90.0
 51
173.0
  0
ARC
  5
3AB
100
AcDbEntity
  8
0
100
AcDbCircle
 62
7
  6
CONTINUOUS
 10
19.0243355532
 20
11.8913649757
 40
0.0131233596
100
AcDbArc
 50
11.0
 51
90.0
  0
ARC
  5
3AC
100
AcDbEntity
  8
0
100
AcDbCircle
 62
7
  6
CONTINUOUS
 10
18.9764023591
 20
11.8913649757
 40
0.0131233596
100
AcDbArc
 50
89.9999999966
 51
175.9999999998
  0
SPLINE
  5
3AD
100
AcDbEntity
  8
0
100
AcDbSpline
 62
7
  6
CONTINUOUS
 70
0
 71
3
 72
9
 73
5
 74
0
 42
0.0000001
 43
0.0000001
 44
0.0000000001
 40
0.0
 40
0.0
 40
0.0
 40
0.0
 40
0.5000327925
 40
1.0
 40
1.0
 40
1.0
 40
1.0
 10
18.6144785317
 20
10.6563452095
 30
0.0
 10
18.6411861342
 20
10.6569512898
 30
0.0
 10
18.6958966286
 20
10.6775796104
 30
0.0
 10
18.7239368706
 20
10.7288409847
 30
0.0
 10
18.7283280701
 20
10.7551885374
 30
0.0
  0
SPLINE
  5
3AE
100
AcDbEntity
  8
DEFAULT_3
100
AcDbSpline
 62
7
  6
PHANTOM
 70
0
 71
3
 72
9
 73
5
 74
0
 42
0.0000001
 43
0.0000001
 44
0.0000000001
 40
0.0
 40
0.0
 40
0.0
 40
0.0
 40
0.2994199775
 40
1.0
 40
1.0
 40
1.0
 40
1.0
 10
15.6663387858
 20
11.8837684008
 30
0.0
 10
15.6651006487
 20
11.8837900126
 30
0.0
 10
15.6654674854
 20
11.8901995369
 30
0.0
 10
15.6648134668
 20
11.8930997999
 30
0.0
 10
15.6648372869
 20
11.8959971247
 30
0.0
  0
SPLINE
  5
3AF
100
AcDbEntity
  8
DEFAULT_3
100
AcDbSpline
 62
7
  6
PHANTOM
 70
0
 71
3
 72
9
 73
5
 74
0
 42
0.0000001
 43
0.0000001
 44
0.0000000001
 40
0.0
 40
0.0
 40
0.0
 40
0.0
 40
0.9230500572
 40
1.0
 40
1.0
 40
1.0
 40
1.0
 10
18.8785192305
 20
11.8707644971
 30
0.0
 10
18.8776030577
 20
11.8670067987
 30
0.0
 10
18.8778279884
 20
11.8665939172
 30
0.0
 10
18.8753953769
 20
11.8582597638
 30
0.0
 10
18.8755213423
 20
11.8585565768
 30
0.0
  0
SPLINE
  5
3B0
100
AcDbEntity
  8
DEFAULT_3
100
AcDbSpline
 62
7
  6
PHANTOM
 70
0
 71
3
 72
8
 73
4
 74
0
 42
0.0000001
 43
0.0000001
 44
0.0000000001
 40
0.0
 40
0.0
 40
0.0
 40
0.0
 40
1.0
 40
1.0
 40
1.0
 40
1.0
 10
15.6919317974
 20
11.8607243496
 30
0.0
 10
15.6908736989
 20
11.8693418701
 30
0.0
 10
15.6877985791
 20
11.8781118853
 30
0.0
 10
15.6825358088
 20
11.8850172804
 30
0.0
  0
SPLINE
  5
3B1
100
AcDbEntity
  8
DEFAULT_3
100
AcDbSpline
 62
7
  6
PHANTOM
 70
0
 71
3
 72
8
 73
4
 74
0
 42
0.0000001
 43
0.0000001
 44
0.0000000001
 40
0.0
 40
0.0
 40
0.0
 40
0.0
 40
1.0
 40
1.0
 40
1.0
 40
1.0
 10
15.6825358088
 20
11.8850172804
 30
0.0
 10
15.6798739606
 20
11.888509949
 30
0.0
 10
15.6765070468
 20
11.8916540383
 30
0.0
 10
15.6726118165
 20
11.8936816848
 30
0.0
  0
SPLINE
  5
3B2
100
AcDbEntity
  8
DEFAULT_3
100
AcDbSpline
 62
7
  6
PHANTOM
 70
0
 71
3
 72
8
 73
4
 74
0
 42
0.0000001
 43
0.0000001
 44
0.0000000001
 40
0.0
 40
0.0
 40
0.0
 40
0.0
 40
1.0
 40
1.0
 40
1.0
 40
1.0
 10
15.6713208688
 20
11.8943035781
 30
0.0
 10
15.6692789431
 20
11.8952088614
 30
0.0
 10
15.6670632568
 20
11.8958123745
 30
0.0
 10
15.6648371709
 20
11.8959955145
 30
0.0
  0
SPLINE
  5
3B3
100
AcDbEntity
  8
DEFAULT_3
100
AcDbSpline
 62
7
  6
PHANTOM
 70
0
 71
3
 72
8
 73
4
 74
0
 42
0.0000001
 43
0.0000001
 44
0.0000000001
 40
0.0
 40
0.0
 40
0.0
 40
0.0
 40
1.0
 40
1.0
 40
1.0
 40
1.0
 10
15.5940840035
 20
11.8974504747
 30
0.0
 10
15.5919117389
 20
11.8959183097
 30
0.0
 10
15.5899717078
 20
11.8940572961
 30
0.0
 10
15.588158006
 20
11.8921139102
 30
0.0
  0
SPLINE
  5
3B4
100
AcDbEntity
  8
DEFAULT_3
100
AcDbSpline
 62
7
  6
PHANTOM
 70
0
 71
3
 72
10
 73
6
 74
0
 42
0.0000001
 43
0.0000001
 44
0.0000000001
 40
0.0
 40
0.0
 40
0.0
 40
0.0
 40
0.6989834444
 40
0.8339526487
 40
1.0
 40
1.0
 40
1.0
 40
1.0
 10
15.5881578488
 20
11.8921141321
 30
0.0
 10
15.5872459336
 20
11.8913796746
 30
0.0
 10
15.5866416547
 20
11.8908386102
 30
0.0
 10
15.584511326
 20
11.8892577287
 30
0.0
 10
15.5852309277
 20
11.8899485079
 30
0.0
 10
15.5854343797
 20
11.8901381849
 30
0.0
  0
SPLINE
  5
3B5
100
AcDbEntity
  8
DEFAULT_3
100
AcDbSpline
 62
7
  6
PHANTOM
 70
0
 71
3
 72
8
 73
4
 74
0
 42
0.0000001
 43
0.0000001
 44
0.0000000001
 40
0.0
 40
0.0
 40
0.0
 40
0.0
 40
1.0
 40
1.0
 40
1.0
 40
1.0
 10
15.5972634731
 20
11.8849741149
 30
0.0
 10
15.5934070001
 20
11.8850414299
 30
0.0
 10
15.5895939691
 20
11.8885344011
 30
0.0
 10
15.5881578488
 20
11.8921141321
 30
0.0
  0
SPLINE
  5
3B6
100
AcDbEntity
  8
DEFAULT_3
100
AcDbSpline
 62
7
  6
PHANTOM
 70
0
 71
3
 72
9
 73
5
 74
0
 42
0.0000001
 43
0.0000001
 44
0.0000000001
 40
0.0
 40
0.0
 40
0.0
 40
0.0
 40
0.0631508833
 40
1.0
 40
1.0
 40
1.0
 40
1.0
 10
15.5749330089
 20
11.8933306309
 30
0.0
 10
15.5750670673
 20
11.8933282909
 30
0.0
 10
15.5770775743
 20
11.8942586841
 30
0.0
 10
15.5780950604
 20
11.8963123166
 30
0.0
 10
15.5792911278
 20
11.8979016022
 30
0.0
  0
SPLINE
  5
3B7
100
AcDbEntity
  8
DEFAULT_3
100
AcDbSpline
 62
7
  6
PHANTOM
 70
0
 71
3
 72
11
 73
7
 74
0
 42
0.0000001
 43
0.0000001
 44
0.0000000001
 40
0.0
 40
0.0
 40
0.0
 40
0.0
 40
0.3834739186
 40
0.7086946076
 40
0.9244095096
 40
1.0
 40
1.0
 40
1.0
 40
1.0
 10
15.7356744534
 20
11.9339336732
 30
0.0
 10
15.7289262509
 20
11.9343651659
 30
0.0
 10
15.7168699069
 20
11.9348202903
 30
0.0
 10
15.6990740182
 20
11.9358541157
 30
0.0
 10
15.6911405074
 20
11.9344963329
 30
0.0
 10
15.68278038
 20
11.9352566623
 30
0.0
 10
15.6829428227
 20
11.9339336735
 30
0.0
  0
SPLINE
  5
3B8
100
AcDbEntity
  8
DEFAULT_3
100
AcDbSpline
 62
7
  6
PHANTOM
 70
0
 71
3
 72
8
 73
4
 74
0
 42
0.0000001
 43
0.0000001
 44
0.0000000001
 40
0.0
 40
0.0
 40
0.0
 40
0.0
 40
1.0
 40
1.0
 40
1.0
 40
1.0
 10
18.8927716159
 20
11.892280415
 30
0.0
 10
18.8869744167
 20
11.8922804141
 30
0.0
 10
18.8804525823
 20
11.8865103797
 30
0.0
 10
18.879746081
 20
11.880756392
 30
0.0
  0
SPLINE
  5
3B9
100
AcDbEntity
  8
DEFAULT_3
100
AcDbSpline
 62
7
  6
PHANTOM
 70
0
 71
3
 72
9
 73
5
 74
0
 42
0.0000001
 43
0.0000001
 44
0.0000000001
 40
0.0
 40
0.0
 40
0.0
 40
0.0
 40
0.7048158802
 40
1.0
 40
1.0
 40
1.0
 40
1.0
 10
18.8785192305
 20
11.8707644971
 30
0.0
 10
18.8754714518
 20
11.8711368963
 30
0.0
 10
18.8724793621
 20
11.8704016856
 30
0.0
 10
18.8656504065
 20
11.872724742
 30
0.0
 10
18.8654936905
 20
11.871448393
 30
0.0
  0
SPLINE
  5
3BA
100
AcDbEntity
  8
DEFAULT_3
100
AcDbSpline
 62
7
  6
PHANTOM
 70
0
 71
3
 72
11
 73
7
 74
0
 42
0.0000001
 43
0.0000001
 44
0.0000000001
 40
0.0
 40
0.0
 40
0.0
 40
0.0
 40
0.376080638
 40
0.6942764851
 40
0.9104471675
 40
1.0
 40
1.0
 40
1.0
 40
1.0
 10
15.8942144511
 20
10.7429376657
 30
0.0
 10
15.8860448906
 20
10.7417782252
 30
0.0
 10
15.8711497138
 20
10.7403011257
 30
0.0
 10
15.8502227851
 20
10.7391272591
 30
0.0
 10
15.8384967498
 20
10.7397579561
 30
0.0
 10
15.8294619429
 20
10.7409932577
 30
0.0
 10
15.8291768324
 20
10.7429373026
 30
0.0
  0
LINE
  5
3BB
100
AcDbEntity
  8
DEFAULT_3
100
AcDbLine
 62
7
  6
PHANTOM
 10
12.920926346
 20
11.938723676
 11
12.917452737
 21
11.9388014483
  0
LINE
  5
3BC
100
AcDbEntity
  8
DEFAULT_3
100
AcDbLine
 62
7
  6
PHANTOM
 10
12.9175976426
 20
11.9360365063
 11
12.9209264761
 21
11.935995543
  0
LINE
  5
3BD
100
AcDbEntity
  8
DEFAULT_3
100
AcDbLine
 62
7
  6
PHANTOM
 10
12.9775477589
 20
11.9377181536
 11
12.9740759518
 21
11.9377959261
  0
SPLINE
  5
3BE
100
AcDbEntity
  8
DEFAULT_3
100
AcDbSpline
 62
7
  6
PHANTOM
 70
0
 71
3
 72
11
 73
7
 74
0
 42
0.0000001
 43
0.0000001
 44
0.0000000001
 40
0.0
 40
0.0
 40
0.0
 40
0.0
 40
0.0803125886
 40
0.2939779166
 40
0.6138733756
 40
1.0
 40
1.0
 40
1.0
 40
1.0
 10
15.8938164971
 20
10.6853350512
 30
0.0
 10
15.8929970999
 20
10.6866414537
 30
0.0
 10
15.8949269763
 20
10.6928210033
 30
0.0
 10
15.8933325086
 20
10.7041408668
 30
0.0
 10
15.8943283125
 20
10.7220354987
 30
0.0
 10
15.8941076813
 20
10.7355242889
 30
0.0
 10
15.8942144511
 20
10.7429376657
 30
0.0
  0
LINE
  5
3BF
100
AcDbEntity
  8
DEFAULT_3
100
AcDbLine
 62
7
  6
PHANTOM
 10
12.974076082
 20
11.935067784
 11
12.9774067121
 21
11.9350268203
  0
SPLINE
  5
3C0
100
AcDbEntity
  8
DEFAULT_3
100
AcDbSpline
 62
7
  6
PHANTOM
 70
0
 71
3
 72
9
 73
5
 74
0
 42
0.0000001
 43
0.0000001
 44
0.0000000001
 40
0.0
 40
0.0
 40
0.0
 40
0.0
 40
0.2054267962
 40
1.0
 40
1.0
 40
1.0
 40
1.0
 10
15.8942170694
 20
10.7429406535
 30
0.0
 10
16.0731139818
 20
10.7416045201
 30
0.0
 10
16.9440112208
 20
10.7392044372
 30
0.0
 10
17.81480287
 20
10.7571988715
 30
0.0
 10
18.5066425112
 20
10.7709953811
 30
0.0
  0
SPLINE
  5
3C1
100
AcDbEntity
  8
DEFAULT_3
100
AcDbSpline
 62
7
  6
PHANTOM
 70
0
 71
3
 72
11
 73
7
 74
0
 42
0.0000001
 43
0.0000001
 44
0.0000000001
 40
0.0
 40
0.0
 40
0.0
 40
0.0
 40
0.0755957374
 40
0.2913126044
 40
0.6165347035
 40
1.0
 40
1.0
 40
1.0
 40
1.0
 10
18.82688922
 20
11.9339336721
 30
0.0
 10
18.8270516939
 20
11.9352569144
 30
0.0
 10
18.8186914205
 20
11.9345005849
 30
0.0
 10
18.810755813
 20
11.9358559144
 30
0.0
 10
18.7929583779
 20
11.9348225563
 30
0.0
 10
18.7809005598
 20
11.9343661967
 30
0.0
 10
18.7741517475
 20
11.9339336724
 30
0.0
  0
SPLINE
  5
3C2
100
AcDbEntity
  8
DEFAULT_3
100
AcDbSpline
 62
7
  6
PHANTOM
 70
0
 71
3
 72
11
 73
7
 74
0
 42
0.0000001
 43
0.0000001
 44
0.0000000001
 40
0.0
 40
0.0
 40
0.0
 40
0.0
 40
0.0895950471
 40
0.3057732724
 40
0.6239471234
 40
1.0
 40
1.0
 40
1.0
 40
1.0
 10
18.6843783862
 20
10.7732522769
 30
0.0
 10
18.6840894839
 20
10.771308121
 30
0.0
 10
18.6750671023
 20
10.7700617872
 30
0.0
 10
18.6633314893
 20
10.7694370272
 30
0.0
 10
18.6424137716
 20
10.7706106105
 30
0.0
 10
18.6275198886
 20
10.7720871844
 30
0.0
 10
18.6193526151
 20
10.7732505523
 30
0.0
  0
SPLINE
  5
3C3
100
AcDbEntity
  8
DEFAULT_3
100
AcDbSpline
 62
7
  6
PHANTOM
 70
0
 71
3
 72
9
 73
5
 74
0
 42
0.0000001
 43
0.0000001
 44
0.0000000001
 40
0.0
 40
0.0
 40
0.0
 40
0.0
 40
0.5000674639
 40
1.0
 40
1.0
 40
1.0
 40
1.0
 10
18.6205699479
 20
10.715648775
 30
0.0
 10
18.6358590533
 20
10.7160162686
 30
0.0
 10
18.6672877385
 20
10.7280521627
 30
0.0
 10
18.6824421022
 20
10.7580859853
 30
0.0
 10
18.6843783862
 20
10.7732522769
 30
0.0
  0
SPLINE
  5
3C4
100
AcDbEntity
  8
DEFAULT_3
100
AcDbSpline
 62
7
  6
PHANTOM
 70
0
 71
3
 72
9
 73
5
 74
0
 42
0.0000001
 43
0.0000001
 44
0.0000000001
 40
0.0
 40
0.0
 40
0.0
 40
0.0
 40
0.6873521575
 40
1.0
 40
1.0
 40
1.0
 40
1.0
 10
15.5790110128
 20
11.8972564308
 30
0.0
 10
15.580577886
 20
11.8991203335
 30
0.0
 10
15.5830618172
 20
11.9018077824
 30
0.0
 10
15.5863539815
 20
11.903227775
 30
0.0
 10
15.5874034726
 20
11.9035817547
 30
0.0
  0
LINE
  5
3C5
100
AcDbEntity
  8
DEFAULT_3
100
AcDbLine
 62
7
  6
PHANTOM
 10
18.6206713022
 20
10.7156523222
 11
18.5079489436
 21
10.7133920794
  0
LINE
  5
3C6
100
AcDbEntity
  8
DEFAULT_3
100
AcDbLine
 62
7
  6
PHANTOM
 10
18.6205688302
 20
10.7156502417
 11
18.6199170173
 21
10.708975316
  0
SPLINE
  5
3C7
100
AcDbEntity
  8
DEFAULT_3
100
AcDbSpline
 62
7
  6
PHANTOM
 70
0
 71
3
 72
10
 73
6
 74
0
 42
0.0000001
 43
0.0000001
 44
0.0000000001
 40
0.0
 40
0.0
 40
0.0
 40
0.0
 40
0.0770288127
 40
0.2898507619
 40
1.0
 40
1.0
 40
1.0
 40
1.0
 10
18.6206713022
 20
10.7156523222
 30
0.0
 10
18.6203023049
 20
10.7170849507
 30
0.0
 10
18.6208465348
 20
10.7227543854
 30
0.0
 10
18.6194638335
 20
10.7418144638
 30
0.0
 10
18.6196295497
 20
10.7596177609
 30
0.0
 10
18.6193504391
 20
10.7732537615
 30
0.0
  0
SPLINE
  5
3C8
100
AcDbEntity
  8
DEFAULT_3
100
AcDbSpline
 62
7
  6
PHANTOM
 70
0
 71
3
 72
9
 73
5
 74
0
 42
0.0000001
 43
0.0000001
 44
0.0000000001
 40
0.0
 40
0.0
 40
0.0
 40
0.0
 40
0.7100413313
 40
1.0
 40
1.0
 40
1.0
 40
1.0
 10
18.5066425126
 20
10.7709953123
 30
0.0
 10
18.5069185039
 20
10.7573610053
 30
0.0
 10
18.5087240517
 20
10.7383531776
 30
0.0
 10
18.5066181239
 20
10.7187996938
 30
0.0
 10
18.5079489436
 20
10.7133920796
 30
0.0
  0
SPLINE
  5
3C9
100
AcDbEntity
  8
DEFAULT_3
100
AcDbSpline
 62
7
  6
PHANTOM
 70
0
 71
3
 72
9
 73
5
 74
0
 42
0.0000001
 43
0.0000001
 44
0.0000000001
 40
0.0
 40
0.0
 40
0.0
 40
0.0
 40
0.7100521719
 40
1.0
 40
1.0
 40
1.0
 40
1.0
 10
12.747041999
 20
11.8862940638
 30
0.0
 10
12.7483040345
 20
11.8889197914
 30
0.0
 10
12.7505945832
 20
11.8907704053
 30
0.0
 10
12.751631374
 20
11.8977307808
 30
0.0
 10
12.7527045616
 20
11.897217474
 30
0.0
  0
SPLINE
  5
3CA
100
AcDbEntity
  8
DEFAULT_3
100
AcDbSpline
 62
7
  6
PHANTOM
 70
0
 71
3
 72
8
 73
4
 74
0
 42
0.0000001
 43
0.0000001
 44
0.0000000001
 40
0.0
 40
0.0
 40
0.0
 40
0.0
 40
1.0
 40
1.0
 40
1.0
 40
1.0
 10
12.7393922584
 20
11.8904081649
 30
0.0
 10
12.7373889464
 20
11.8916109911
 30
0.0
 10
12.7349735558
 20
11.8922804151
 30
0.0
 10
12.732636881
 20
11.892280415
 30
0.0
  0
SPLINE
  5
3CB
100
AcDbEntity
  8
DEFAULT_3
100
AcDbSpline
 62
7
  6
PHANTOM
 70
0
 71
3
 72
8
 73
4
 74
0
 42
0.0000001
 43
0.0000001
 44
0.0000000001
 40
0.0
 40
0.0
 40
0.0
 40
0.0
 40
1.0
 40
1.0
 40
1.0
 40
1.0
 10
15.5790109736
 20
11.8972563899
 30
0.0
 10
15.5824579366
 20
11.8966625078
 30
0.0
 10
15.5858566426
 20
11.8947482666
 30
0.0
 10
15.5881578528
 20
11.8921141289
 30
0.0
  0
SPLINE
  5
3CC
100
AcDbEntity
  8
DEFAULT_3
100
AcDbSpline
 62
7
  6
PHANTOM
 70
0
 71
3
 72
9
 73
5
 74
0
 42
0.0000001
 43
0.0000001
 44
0.0000000001
 40
0.0
 40
0.0
 40
0.0
 40
0.0
 40
0.7098258436
 40
1.0
 40
1.0
 40
1.0
 40
1.0
 10
12.7393922603
 20
11.8904081639
 30
0.0
 10
12.7409023824
 20
11.8929110399
 30
0.0
 10
12.7433378267
 20
11.8945665009
 30
0.0
 10
12.7451231538
 20
11.9013589758
 30
0.0
 10
12.746147638
 20
11.900743833
 30
0.0
  0
SPLINE
  5
3CD
100
AcDbEntity
  8
DEFAULT_3
100
AcDbSpline
 62
7
  6
PHANTOM
 70
0
 71
3
 72
9
 73
5
 74
0
 42
0.0000001
 43
0.0000001
 44
0.0000000001
 40
0.0
 40
0.0
 40
0.0
 40
0.0
 40
0.0667042817
 40
1.0
 40
1.0
 40
1.0
 40
1.0
 10
12.7615317567
 20
11.8780968844
 30
0.0
 10
12.7611720894
 20
11.8781875026
 30
0.0
 10
12.7558094799
 20
11.8796643184
 30
0.0
 10
12.7509113844
 20
11.8828347751
 30
0.0
 10
12.747041913
 20
11.88629401
 30
0.0
  0
SPLINE
  5
3CE
100
AcDbEntity
  8
DEFAULT_3
100
AcDbSpline
 62
7
  6
PHANTOM
 70
0
 71
3
 72
8
 73
4
 74
0
 42
0.0000001
 43
0.0000001
 44
0.0000000001
 40
0.0
 40
0.0
 40
0.0
 40
0.0
 40
1.0
 40
1.0
 40
1.0
 40
1.0
 10
15.895196479
 20
10.6659707742
 30
0.0
 10
15.8954263753
 20
10.6724383045
 30
0.0
 10
15.8944977555
 20
10.6789007766
 30
0.0
 10
15.8938187976
 20
10.6853366772
 30
0.0
  0
SPLINE
  5
3CF
100
AcDbEntity
  8
DEFAULT_3
100
AcDbSpline
 62
7
  6
PHANTOM
 70
0
 71
3
 72
9
 73
5
 74
0
 42
0.0000001
 43
0.0000001
 44
0.0000000001
 40
0.0
 40
0.0
 40
0.0
 40
0.0
 40
0.3081420884
 40
1.0
 40
1.0
 40
1.0
 40
1.0
 10
18.5079489436
 20
10.7133920797
 30
0.0
 10
18.2394750022
 20
10.7080389616
 30
0.0
 10
17.3682169773
 20
10.6911628043
 30
0.0
 10
16.4967134025
 20
10.6808393879
 30
0.0
 10
15.8938176014
 20
10.6853366873
 30
0.0
  0
SPLINE
  5
3D0
100
AcDbEntity
  8
DEFAULT_3
100
AcDbSpline
 62
7
  6
PHANTOM
 70
0
 71
3
 72
9
 73
5
 74
0
 42
0.0000001
 43
0.0000001
 44
0.0000000001
 40
0.0
 40
0.0
 40
0.0
 40
0.0
 40
0.295184116
 40
1.0
 40
1.0
 40
1.0
 40
1.0
 10
18.8667205404
 20
11.8814402872
 30
0.0
 10
18.8668772563
 20
11.8827166362
 30
0.0
 10
18.8737062124
 20
11.8803935789
 30
0.0
 10
18.8766983019
 20
11.8811287894
 30
0.0
 10
18.8797460807
 20
11.8807563898
 30
0.0
  0
SPLINE
  5
3D1
100
AcDbEntity
  8
DEFAULT_3
100
AcDbSpline
 62
7
  6
PHANTOM
 70
0
 71
3
 72
8
 73
4
 74
0
 42
0.0000001
 43
0.0000001
 44
0.0000000001
 40
0.0
 40
0.0
 40
0.0
 40
0.0
 40
1.0
 40
1.0
 40
1.0
 40
1.0
 10
15.5872796865
 20
11.9043653985
 30
0.0
 10
15.5899147955
 20
11.9024911209
 30
0.0
 10
15.5922402528
 20
11.900107326
 30
0.0
 10
15.5940839044
 20
11.8974506995
 30
0.0
  0
SPLINE
  5
3D2
100
AcDbEntity
  8
DEFAULT_3
100
AcDbSpline
 62
7
  6
PHANTOM
 70
0
 71
3
 72
11
 73
7
 74
0
 42
0.0000001
 43
0.0000001
 44
0.0000000001
 40
0.0
 40
0.0
 40
0.0
 40
0.0
 40
0.3818843522
 40
0.7053094056
 40
0.9217266715
 40
1.0
 40
1.0
 40
1.0
 40
1.0
 10
15.6568917363
 20
11.9321087016
 30
0.0
 10
15.6601982558
 20
11.9325135791
 30
0.0
 10
15.6661408458
 20
11.9330816741
 30
0.0
 10
15.6747533386
 20
11.934235559
 30
0.0
 10
15.6789395026
 20
11.9336965067
 30
0.0
 10
15.6828596057
 20
11.9346114216
 30
0.0
 10
15.6829428164
 20
11.9339337249
 30
0.0
  0
LINE
  5
3D3
100
AcDbEntity
  8
DEFAULT_3
100
AcDbLine
 62
7
  6
PHANTOM
 10
13.35333879
 20
11.9445444405
 11
14.7785459314
 21
11.9321037904
  0
SPLINE
  5
3D4
100
AcDbEntity
  8
DEFAULT_3
100
AcDbSpline
 62
7
  6
PHANTOM
 70
0
 71
3
 72
9
 73
5
 74
0
 42
0.0000001
 43
0.0000001
 44
0.0000000001
 40
0.0
 40
0.0
 40
0.0
 40
0.0
 40
0.7336422126
 40
1.0
 40
1.0
 40
1.0
 40
1.0
 10
13.3533387549
 20
11.9445444408
 30
0.0
 10
13.3532653473
 20
11.9415038203
 30
0.0
 10
13.3518059183
 20
11.9390865059
 30
0.0
 10
13.3539738301
 20
11.9319625949
 30
0.0
 10
13.3528803836
 20
11.9321167264
 30
0.0
  0
SPLINE
  5
3D5
100
AcDbEntity
  8
DEFAULT_3
100
AcDbSpline
 62
7
  6
PHANTOM
 70
0
 71
3
 72
9
 73
5
 74
0
 42
0.0000001
 43
0.0000001
 44
0.0000000001
 40
0.0
 40
0.0
 40
0.0
 40
0.0
 40
0.7399072307
 40
1.0
 40
1.0
 40
1.0
 40
1.0
 10
12.8454328732
 20
11.9489787381
 30
0.0
 10
12.8453785702
 20
11.947004749
 30
0.0
 10
12.8444354626
 20
11.9454093695
 30
0.0
 10
12.8457881306
 20
11.9409166133
 30
0.0
 10
12.8450968797
 20
11.9409801055
 30
0.0
  0
SPLINE
  5
3D6
100
AcDbEntity
  8
DEFAULT_3
100
AcDbSpline
 62
7
  6
PHANTOM
 70
0
 71
3
 72
9
 73
5
 74
0
 42
0.0000001
 43
0.0000001
 44
0.0000000001
 40
0.0
 40
0.0
 40
0.0
 40
0.0
 40
0.3379404161
 40
1.0
 40
1.0
 40
1.0
 40
1.0
 10
19.0367472769
 20
11.8942129132
 30
0.0
 10
19.0338800872
 20
11.8952432513
 30
0.0
 10
19.0251231328
 20
11.8887094014
 30
0.0
 10
19.0178970528
 20
11.8849877792
 30
0.0
 10
19.0130372157
 20
11.8815224563
 30
0.0
  0
SPLINE
  5
3D7
100
AcDbEntity
  8
DEFAULT_3
100
AcDbSpline
 62
7
  6
PHANTOM
 70
0
 71
3
 72
8
 73
4
 74
0
 42
0.0000001
 43
0.0000001
 44
0.0000000001
 40
0.0
 40
0.0
 40
0.0
 40
0.0
 40
1.0
 40
1.0
 40
1.0
 40
1.0
 10
19.0110835835
 20
11.8837187114
 30
0.0
 10
19.0080608231
 20
11.8826869067
 30
0.0
 10
19.004930513
 20
11.8818805925
 30
0.0
 10
19.0017566441
 20
11.8815224615
 30
0.0
  0
SPLINE
  5
3D8
100
AcDbEntity
  8
DEFAULT_3
100
AcDbSpline
 62
7
  6
PHANTOM
 70
0
 71
3
 72
9
 73
5
 74
0
 42
0.0000001
 43
0.0000001
 44
0.0000000001
 40
0.0
 40
0.0
 40
0.0
 40
0.0
 40
0.2633699187
 40
1.0
 40
1.0
 40
1.0
 40
1.0
 10
19.0110835807
 20
11.8837187057
 30
0.0
 10
19.0090278798
 20
11.886967631
 30
0.0
 10
18.9986281308
 20
11.897643258
 30
0.0
 10
18.9837997818
 20
11.9023611752
 30
0.0
 10
18.973139987
 20
11.9037761071
 30
0.0
  0
LINE
  5
3D9
100
AcDbEntity
  8
DEFAULT_3
100
AcDbLine
 62
7
  6
PHANTOM
 10
12.7877484182
 20
11.9493205059
 11
12.8115195771
 21
11.9491781806
  0
LINE
  5
3DA
100
AcDbEntity
  8
DEFAULT_3
100
AcDbLine
 62
7
  6
PHANTOM
 10
12.8115195771
 20
11.9491781806
 11
12.8454328523
 21
11.9489776424
  0
SPLINE
  5
3DB
100
AcDbEntity
  8
DEFAULT_3
100
AcDbSpline
 62
7
  6
PHANTOM
 70
0
 71
3
 72
9
 73
5
 74
0
 42
0.0000001
 43
0.0000001
 44
0.0000000001
 40
0.0
 40
0.0
 40
0.0
 40
0.0
 40
0.5774706736
 40
1.0
 40
1.0
 40
1.0
 40
1.0
 10
18.996530849
 20
11.8815224588
 30
0.0
 10
18.9956756655
 20
11.8816576203
 30
0.0
 10
18.9941887058
 20
11.8820107239
 30
0.0
 10
18.9930041668
 20
11.883129394
 30
0.0
 10
18.9927717109
 20
11.8837186998
 30
0.0
  0
SPLINE
  5
3DC
100
AcDbEntity
  8
DEFAULT_3
100
AcDbSpline
 62
7
  6
PHANTOM
 70
0
 71
3
 72
9
 73
5
 74
0
 42
0.0000001
 43
0.0000001
 44
0.0000000001
 40
0.0
 40
0.0
 40
0.0
 40
0.0
 40
0.2605120782
 40
1.0
 40
1.0
 40
1.0
 40
1.0
 10
12.8453106152
 20
11.9569817735
 30
0.0
 10
12.8460055636
 20
11.9569693094
 30
0.0
 10
12.8444772528
 20
11.9526523721
 30
0.0
 10
12.8454205101
 20
11.9509518888
 30
0.0
 10
12.8454328714
 20
11.9489789342
 30
0.0
  0
SPLINE
  5
3DD
100
AcDbEntity
  8
DEFAULT_3
100
AcDbSpline
 62
7
  6
PHANTOM
 70
0
 71
3
 72
9
 73
5
 74
0
 42
0.0000001
 43
0.0000001
 44
0.0000000001
 40
0.0
 40
0.0
 40
0.0
 40
0.0
 40
0.6242239579
 40
1.0
 40
1.0
 40
1.0
 40
1.0
 10
15.5814052549
 20
11.8852516323
 30
0.0
 10
15.5800749555
 20
11.8852791257
 30
0.0
 10
15.5776990481
 20
11.8865630597
 30
0.0
 10
15.5774851389
 20
11.8887977423
 30
0.0
 10
15.5774201905
 20
11.8895961016
 30
0.0
  0
SPLINE
  5
3DE
100
AcDbEntity
  8
DEFAULT_3
100
AcDbSpline
 62
7
  6
PHANTOM
 70
0
 71
3
 72
9
 73
5
 74
0
 42
0.0000001
 43
0.0000001
 44
0.0000000001
 40
0.0
 40
0.0
 40
0.0
 40
0.0
 40
0.2602072056
 40
1.0
 40
1.0
 40
1.0
 40
1.0
 10
15.5683524802
 20
11.8855550123
 30
0.0
 10
15.5686928498
 20
11.8855934215
 30
0.0
 10
15.5679472518
 20
11.8876448087
 30
0.0
 10
15.5684421659
 20
11.8885289169
 30
0.0
 10
15.5684670698
 20
11.8895024421
 30
0.0
  0
SPLINE
  5
3DF
100
AcDbEntity
  8
0
100
AcDbSpline
 62
7
  6
CONTINUOUS
 70
0
 71
3
 72
10
 73
6
 74
0
 42
0.0000001
 43
0.0000001
 44
0.0000000001
 40
0.0
 40
0.0
 40
0.0
 40
0.0
 40
0.6832766444
 40
0.9037635567
 40
1.0
 40
1.0
 40
1.0
 40
1.0
 10
12.6051601748
 20
11.8938690296
 30
0.0
 10
12.6006716036
 20
11.8944088727
 30
0.0
 10
12.5941768165
 20
11.8950230495
 30
0.0
 10
12.5884930476
 20
11.8946003247
 30
0.0
 10
12.5855966328
 20
11.8944940794
 30
0.0
 10
12.5854751349
 20
11.8938690273
 30
0.0
  0
SPLINE
  5
3E0
100
AcDbEntity
  8
DEFAULT_3
100
AcDbSpline
 62
7
  6
PHANTOM
 70
0
 71
3
 72
8
 73
4
 74
0
 42
0.0000001
 43
0.0000001
 44
0.0000000001
 40
0.0
 40
0.0
 40
0.0
 40
0.0
 40
1.0
 40
1.0
 40
1.0
 40
1.0
 10
14.188800894
 20
11.9175202688
 30
0.0
 10
14.624697397
 20
11.9095062868
 30
0.0
 10
15.0605475344
 20
11.899111299
 30
0.0
 10
15.4964391735
 20
11.890836986
 30
0.0
  0
LINE
  5
3E1
100
AcDbEntity
  8
DEFAULT_3
100
AcDbLine
 62
7
  6
PHANTOM
 10
15.4964391735
 20
11.890836986
 11
15.5684672421
 21
11.8895026563
  0
SPLINE
  5
3E2
100
AcDbEntity
  8
DEFAULT_3
100
AcDbSpline
 62
7
  6
PHANTOM
 70
0
 71
3
 72
9
 73
5
 74
0
 42
0.0000001
 43
0.0000001
 44
0.0000000001
 40
0.0
 40
0.0
 40
0.0
 40
0.0
 40
0.1516835631
 40
1.0
 40
1.0
 40
1.0
 40
1.0
 10
15.5685112313
 20
11.8934427234
 30
0.0
 10
15.5687256672
 20
11.8934389374
 30
0.0
 10
15.5679296384
 20
11.8912252074
 30
0.0
 10
15.5684785918
 20
11.8904006884
 30
0.0
 10
15.5684564007
 20
11.8892014372
 30
0.0
  0
SPLINE
  5
3E3
100
AcDbEntity
  8
DEFAULT_3
100
AcDbSpline
 62
7
  6
PHANTOM
 70
0
 71
3
 72
9
 73
5
 74
0
 42
0.0000001
 43
0.0000001
 44
0.0000000001
 40
0.0
 40
0.0
 40
0.0
 40
0.0
 40
0.6248129423
 40
1.0
 40
1.0
 40
1.0
 40
1.0
 10
15.5719005039
 20
11.8933835852
 30
0.0
 10
15.5732505177
 20
11.8933599573
 30
0.0
 10
15.5756363992
 20
11.8920803464
 30
0.0
 10
15.5759548355
 20
11.8898426707
 30
0.0
 10
15.5760584908
 20
11.8890385448
 30
0.0
  0
SPLINE
  5
3E4
100
AcDbEntity
  8
DEFAULT_3
100
AcDbSpline
 62
7
  6
PHANTOM
 70
0
 71
3
 72
10
 73
6
 74
0
 42
0.0000001
 43
0.0000001
 44
0.0000000001
 40
0.0
 40
0.0
 40
0.0
 40
0.0
 40
0.6877944926
 40
0.9049111349
 40
1.0
 40
1.0
 40
1.0
 40
1.0
 10
19.0110835122
 20
11.8837187237
 30
0.0
 10
19.0137049667
 20
11.8887160946
 30
0.0
 10
19.0172044099
 20
11.89573098
 30
0.0
 10
19.0217386022
 20
11.9017617349
 30
0.0
 10
19.02331278
 20
11.9044884038
 30
0.0
 10
19.0240929633
 20
11.9044883794
 30
0.0
  0
ENDSEC
  0
SECTION
  2
OBJECTS
  0
DICTIONARY
  5
C
100
AcDbDictionary
280
0
281
1
  3
ACAD_GROUP
350
D
  3
ACAD_MLINESTYLE
350
17
  3
ACAD_LAYOUT
350
1A
  3
ACAD_PLOTSETTINGS
350
19
  3
ACAD_PLOTSTYLENAME
350
E
  0
DICTIONARY
  5
D
102
{ACAD_REACTORS
330
C
102
}
100
AcDbDictionary
280
0
281
1
  0
ACDBDICTIONARYWDFLT
  5
E
102
{ACAD_REACTORS
330
C
102
}
100
AcDbDictionary
281
1
  3
Normal
350
F
100
AcDbDictionaryWithDefault
340
F
  0
DICTIONARY
  5
17
102
{ACAD_REACTORS
330
C
102
}
100
AcDbDictionary
280
0
281
1
  3
Standard
350
18
  0
DICTIONARY
  5
19
102
{ACAD_REACTORS
330
C
102
}
100
AcDbDictionary
281
1
  0
DICTIONARY
  5
1A
102
{ACAD_REACTORS
330
C
102
}
100
AcDbDictionary
281
1
  3
Model
350
3E5
  3
Layout1
350
3E6
  0
ACDBPLACEHOLDER
  5
F
102
{ACAD_REACTORS
330
E
102
}
  0
MLINESTYLE
  5
18
102
{ACAD_REACTORS
330
17
102
}
100
AcDbMlineStyle
  2
STANDARD
 70
0
  3

 62
256
 51
90.0
 52
90.0
 71
2
 49
0.5
 62
256
  6
BYLAYER
 49
-0.5
 62
256
  6
BYLAYER
  0
LAYOUT
  5
3E5
102
{ACAD_REACTORS
330
1A
102
}
100
AcDbPlotSettings
  1

  2
none_device
  4
ANSI_E_(44.00_x_34.00_Inches)
  6

 40
0.0
 41
0.0
 42
0.0
 43
0.0
 44
1117.6
 45
863.6
 46
0.0
 47
0.0
 48
0.0
 49
0.0
140
0.0
141
0.0
142
1.0
143
1.0
 70
1024
 72
0
 73
0
 74
0
  7

 75
0
147
1.0
148
0.0
149
0.0
100
AcDbLayout
  1
Model
 70
0
 71
0
 10
0.0
 20
0.0
 11
44.0
 21
34.0
 12
0.0
 22
0.0
 32
0.0
 14
0.0
 24
0.0
 34
0.0
 15
0.0
 25
0.0
 35
0.0
146
0.0
 13
0.0
 23
0.0
 33
0.0
 16
1.0
 26
0.0
 36
0.0
 17
0.0
 27
1.0
 37
0.0
 76
0
330
21A
345
0
346
0
  0
LAYOUT
  5
3E6
102
{ACAD_REACTORS
330
1A
102
}
100
AcDbPlotSettings
  1

  2
none_device
  4
ANSI_E_(44.00_x_34.00_Inches)
  6

 40
0.0
 41
0.0
 42
0.0
 43
0.0
 44
1117.6
 45
863.6
 46
0.0
 47
0.0
 48
0.0
 49
0.0
140
0.0
141
0.0
142
1.0
143
1.0
 70
0
 72
0
 73
0
 74
0
  7

 75
0
147
1.0
148
0.0
149
0.0
100
AcDbLayout
  1
Layout1
 70
0
 71
1
 10
0.0
 20
0.0
 11
44.0
 21
34.0
 12
0.0
 22
0.0
 32
0.0
 14
0.0
 24
0.0
 34
0.0
 15
0.0
 25
0.0
 35
0.0
146
0.0
 13
0.0
 23
0.0
 33
0.0
 16
1.0
 26
0.0
 36
0.0
 17
0.0
 27
1.0
 37
0.0
 76
0
330
21B
345
0
346
0
  0
ENDSEC
  0
EOF
